Агент Ева / Ava (2020) BDRip 1080p | 60 fps Властелин колец: Трилогия / The Lord of the Rings: Trilogy (2001-2003) BDRip-AVC | Extended Cut | 60 fps Пятый элемент / The Fifth Element (1997) BDRip 1080p | 60 fps Форпост / The Outpost (2020) BDRip 1080p | 60 fps Охота / The Hunt (2020) BDRip 1080p | 60 fps Принц Персии: Пески времени / Prince of Persia: The Sands of Time (2010) BDRip 1080p | 60 fps Поезд смерти / D-Railed (2018) BDRip 1080p | 60 fps Вивариум / Vivarium (2019) BDRip 720p | 60 fps
  1. Longevity:
    6 years 4 months
    Posts:
    2414
    Gender:
    Male
    Планетариум / Planetarium (2016) BDRip 720p | 60 fps- Информация
    Название: Планетариум
    Оригинальное название: Planetarium
    Год выхода: 2016
    Жанр: Фэнтези, триллер, драма, мелодрама, детектив
    Режиссер: Ребекка Злотовски
    Сценарий: Ребекка Злотовски, Робин Кампилло
    Продюсер: Фридерик Жув, Жан-Пьер Дарденн, Люк Дарденн
    В ролях: Натали Портман, Лили-Роуз Мелоди Депп, Эммануэль Салинжер, Амира Касар, Пьер Сальвадори, Луи Гаррель, Давид Беннент, Дэмиен Шапель, Ежи Рогульский, Камилль Лелуш
    --Сюжет:
    Париж 30-х годов XX века, город декаданса и роскоши. Красавицы американки, сестры Лора и Кэти Барлоу, приезжают туда, чтобы провести спиритические сеансы. Знаменитый кинопродюсер Андрэ Корбен решает, что с их помощью ему удастся поправить пошатнувшиеся дела. Показ «оживших» духов на большом экране принесет ему новую славу и богатство. Лора будет главной звездой его будущего блокбастера. Но что если сестры — вовсе не медиумы, не посредники между миром живых и миром мертвых, а обычные шарлатанки. Похоже, месье Корбена это совсем не волнует, он зачарован божественной красотой Лоры и необъяснимыми талантами Кэти…
    - Страна: Франция, Бельгия
    Продолжительность: 01:48:09

    Файл
    Кодек: MPEG4/ISO/AVC H.264
    Формат: MKV
    Качество: BDRip 720p | 60 fps
    Видео: 1280 x 536 (2.388) | 60.000 fps | 8.0 Мбит/сек
    Аудио 1: AC3 | 5.1 | 48 kHz | 384 kbps | 16 bit | Дубляж - iTunes |
    Аудио 2: AC3 | 5.1 | 48 kHz | 448 kbps | 16 bit | ENG |
    Субтитры: Eng

    MedifInfo

    Видео
    Идентификатор : 1
    Формат : AVC
    Формат/Информация : Advanced Video Codec
    Профиль формата : [email protected]
    Параметр CABAC формата : Да
    Параметр ReFrames формата : 5 кадров
    Идентификатор кодека : V_MPEG4/ISO/AVC
    Продолжительность : 1 ч. 48 м.
    Битрейт : 8000 Кбит/сек
    Ширина : 1280 пикселей
    Высота : 536 пикселей
    Соотношение сторон : 2,40:1
    Режим частоты кадров : Постоянный
    Частота кадров : 60,000 кадров/сек
    Цветовое пространство : YUV
    Субдискретизация насыщенности : 4:2:0
    Битовая глубина : 8 бит
    Тип развёртки : Прогрессивная
    Бит/(Пиксели*Кадры) : 0.194
    Размер потока : 5,90 Гбайт (89%)
    Заголовок : www.60-fps.org
    Библиотека кодирования : x264 core 148 r2638 7599210
    Настройки программы : cabac=1 / ref=5 / deblock=1:-3:-3 / analyse=0x3:0x113 / me=umh / subme=8 / psy=1 / psy_rd=1.00:0.25 / mixed_ref=1 / me_range=32 / chroma_me=1 / trellis=1 / 8x8dct=1 / cqm=0 / deadzone=6,6 / fast_pskip=1 / chroma_qp_offset=-4 / threads=12 / lookahead_threads=2 / sliced_threads=0 / nr=0 / decimate=0 / interlaced=0 / bluray_compat=0 / constrained_intra=0 / bframes=3 / b_pyramid=2 / b_adapt=2 / b_bias=0 / direct=3 / weightb=1 / open_gop=0 / weightp=2 / keyint=600 / keyint_min=59 / scenecut=40 / intra_refresh=0 / rc_lookahead=50 / rc=2pass / mbtree=1 / bitrate=8000 / ratetol=1.0 / qcomp=0.80 / qpmin=0 / qpmax=69 / qpstep=4 / cplxblur=20.0 / qblur=0.5 / vbv_maxrate=62500 / vbv_bufsize=78125 / nal_hrd=none / filler=0 / ip_ratio=1.10 / aq=1:0.50
    Default : Да
    Forced : Нет
    Аудио #1
    Идентификатор : 2
    Формат : AC-3
    Формат/Информация : Audio Coding 3
    Расширение режима : CM (complete main)
    Параметр Endianness формата : Big
    Идентификатор кодека : A_AC3
    Продолжительность : 1 ч. 48 м.
    Вид битрейта : Постоянный
    Битрейт : 384 Кбит/сек
    Каналы : 6 каналов
    Расположение каналов : Front: L C R, Side: L R, LFE
    Частота : 48,0 КГц
    Битовая глубина : 16 бит
    Метод сжатия : С потерями
    Размер потока : 297 Мбайт (4%)
    Заголовок : Дубляж - iTunes
    Язык : Russian
    Default : Да
    Forced : Нет
    Аудио #2
    Идентификатор : 3
    Формат : AC-3
    Формат/Информация : Audio Coding 3
    Расширение режима : CM (complete main)
    Параметр Endianness формата : Big
    Идентификатор кодека : A_AC3
    Продолжительность : 1 ч. 48 м.
    Вид битрейта : Постоянный
    Битрейт : 448 Кбит/сек
    Каналы : 6 каналов
    Расположение каналов : Front: L C R, Side: L R, LFE
    Частота : 48,0 КГц
    Битовая глубина : 16 бит
    Метод сжатия : С потерями
    Размер потока : 346 Мбайт (5%)
    Заголовок : eng
    Язык : English
    Default : Нет
    Forced : Нет
    Текст
    Идентификатор : 4
    Формат : UTF-8
    Идентификатор кодека : S_TEXT/UTF8
    Идентификатор кодека/Информация : UTF-8 Plain Text
    Заголовок : Full
    Язык : English
    Default : Нет
    Forced : Нет
    Меню
    00:00:00.000 : en:00:00:00.000
    00:10:49.208 : en:00:10:49.208
    00:19:09.042 : en:00:19:09.042
    00:27:28.417 : en:00:27:28.417
    00:32:41.917 : en:00:32:41.917
    00:40:17.250 : en:00:40:17.250
    00:50:29.208 : en:00:50:29.208
    00:58:53.250 : en:00:58:53.250
    01:06:52.375 : en:01:06:52.375
    01:17:37.042 : en:01:17:37.042
    01:29:44.250 : en:01:29:44.250
    01:39:56.208 : en:01:39:56.208

    Release was prepared by 60-fps.org

  2. Longevity:
    4 years
    Posts:
    19
    Gender:
    Male
    Я думаю это ваш самый качественный рип
    08-Jun-2017 20:48 (after 2 months 6 days)
  3. Longevity:
    4 years 3 months
    Posts:
    110
    Gender:
    Male
    Так себе кино...
    26-Jul-2017 21:14 (after 1 month 18 days)


You cannot post new topics in this forum
You cannot reply to topics in this forum
You cannot edit your posts in this forum
You cannot delete your posts in this forum
You cannot vote in polls in this forum
You cannot attach files in this forum
You cannot download files in this forum