[Цитировать]
Kryl

Планета Земля 2 / Planet Earth II (2016) BDRip 1080p | 60 fps- Информация
Название: Планета Земля 2
Оригинальное название: Planet Earth II
Год выхода: 2016
Жанр: Документальный
Режиссер: Justin Anderson, Ed Charles, Fredi Devas
Продюсер: Ванесса Берловиц, Джеймс Брикелл, Джонатан Килинг
В ролях: Дэвид Аттенборо
--Сюжет:
Продолжение сериала «Планета Земля» показывает Землю такой, какой её ещё никто не видел прежде. Невероятные по красоте пейзажи и самые заповедные и малоизученные уголки нашей планеты. Беспрецедентный для документального фильма бюджет и ещё больший масштаб. Новейшие режимы съемки и детализации картинки, сделали возможным показать великолепие нашей природы во всех подробностях...- Страна: Великобритания
Продолжительность: 6 эпизодов по ~ 00:58:00

Файл
Кодек: MPEG4/ISO/AVC H.264
Формат: MKV
Качество: BDRip 1080p | 60 fps
Видео: 1920 x 1080 (1.778) | 60.000 fps | 32 Мбит/сек
Аудио 1: AC3 | 5.1 | 48 kHz | 640 kbps | 16 bit | Профессиональный, двухголосый - Омикрон |
Аудио 2: AC3 | 5.1 | 48 kHz | 640 kbps | 16 bit | Одноголосый закадровый - Jimmy J. |
Аудио 3: AC3 | 5.1 | 48 kHz | 640 kbps | 16 bit | ENG |
Субтитры: Русские, English

С К Р И Н Ш О Т Ы

Эпизод 1
О С Т Р О В А / I S L A N D S

Удаленные острова предлагают убежище для некоторых из самых странных и редких существ на планете.
Эпизод 2
Г О Р Ы / M O U N T A I N S

Документальный фильм о дикой природе с Дэвидом Аттенборо продолжает уникальный взгляд изнутри на скрытую жизнь обитающих в горах животных.
Эпизод 3
Д Ж У Н Г Л И / J U N G L E S

Джунгли - самые густонаселенные места обитания на планете. Таинственные миры, где необыкновенные животные конкурируют между собой в попытках выжить.
Эпизод 4
П У С Т Ы Н И / D E S E R T S

Пустыни, места заставляющие животных придумывать хитроумные способы справиться с враждебными условиями, приводящими к возникновению самых невероятных историй выживания на Земле.
Эпизод 5
Л У Г А / G R A S S L A N D S

Луга охватывают одну четверть всей суши и дают приют большому числу существ дикой природы. Но чтобы выжить здесь, животные должны переносить самые враждебные сезонные изменения на планете.
Эпизод 6
Г О Р О Д А / C I T I E S

Города являются новейшей средой обитания на планете Земля. Серия расскажет о частичке дикой природы в наших городах.

MedifInfo

Видео
Идентификатор : 1
Формат : AVC
Формат/Информация : Advanced Video Codec
Профиль формата : High@L4.1
Параметр CABAC формата : Да
Параметр ReFrames формата : 4 кадра
Идентификатор кодека : V_MPEG4/ISO/AVC
Продолжительность : 58 м.
Битрейт : 32,0 Мбит/сек
Ширина : 1920 пикселей
Высота : 1080 пикселей
Соотношение сторон : 16:9
Режим частоты кадров : Постоянный
Частота кадров : 60,000 кадров/сек
Цветовое пространство : YUV
Субдискретизация насыщенности : 4:2:0
Битовая глубина : 8 бит
Тип развёртки : Прогрессивная
Бит/(Пиксели*Кадры) : 0.257
Размер потока : 12,8 Гбайт (92%)
Заголовок : www.60-fps.org
Библиотека кодирования : x264 core 148 r2638 7599210
Настройки программы : cabac=1 / ref=4 / deblock=1:-3:-3 / analyse=0x3:0x113 / me=umh / subme=8 / psy=1 / psy_rd=1.00:0.25 / mixed_ref=1 / me_range=32 / chroma_me=1 / trellis=1 / 8x8dct=1 / cqm=0 / deadzone=6,6 / fast_pskip=1 / chroma_qp_offset=-4 / threads=12 / lookahead_threads=2 / sliced_threads=0 / nr=0 / decimate=0 / interlaced=0 / bluray_compat=0 / constrained_intra=0 / bframes=3 / b_pyramid=2 / b_adapt=2 / b_bias=0 / direct=3 / weightb=1 / open_gop=0 / weightp=2 / keyint=600 / keyint_min=60 / scenecut=40 / intra_refresh=0 / rc_lookahead=50 / rc=2pass / mbtree=1 / bitrate=31999 / ratetol=1.0 / qcomp=0.80 / qpmin=0 / qpmax=69 / qpstep=4 / cplxblur=20.0 / qblur=0.5 / vbv_maxrate=62500 / vbv_bufsize=78125 / nal_hrd=none / filler=0 / ip_ratio=1.10 / aq=1:0.50
Default : Да
Forced : Нет
Аудио #1
Идентификатор : 2
Формат : AC-3
Формат/Информация : Audio Coding 3
Расширение режима : CM (complete main)
Параметр Endianness формата : Big
Идентификатор кодека : A_AC3
Продолжительность : 58 м.
Вид битрейта : Постоянный
Битрейт : 640 Кбит/сек
Каналы : 6 каналов
Расположение каналов : Front: L C R, Side: L R, LFE
Частота : 48,0 КГц
Битовая глубина : 16 бит
Метод сжатия : С потерями
Размер потока : 268 Мбайт (2%)
Заголовок : Омикрон
Язык : Russian
Default : Да
Forced : Нет
Аудио #2
Идентификатор : 3
Формат : AC-3
Формат/Информация : Audio Coding 3
Расширение режима : CM (complete main)
Параметр Endianness формата : Big
Идентификатор кодека : A_AC3
Продолжительность : 58 м.
Вид битрейта : Постоянный
Битрейт : 640 Кбит/сек
Каналы : 6 каналов
Расположение каналов : Front: L C R, Side: L R, LFE
Частота : 48,0 КГц
Битовая глубина : 16 бит
Метод сжатия : С потерями
Размер потока : 268 Мбайт (2%)
Заголовок : Jimmy J.
Язык : Russian
Default : Нет
Forced : Нет
Аудио #3
Идентификатор : 4
Формат : AC-3
Формат/Информация : Audio Coding 3
Расширение режима : CM (complete main)
Параметр Endianness формата : Big
Идентификатор кодека : A_AC3
Продолжительность : 58 м.
Вид битрейта : Постоянный
Битрейт : 640 Кбит/сек
Каналы : 6 каналов
Расположение каналов : Front: L C R, Side: L R, LFE
Частота : 48,0 КГц
Битовая глубина : 16 бит
Метод сжатия : С потерями
Размер потока : 268 Мбайт (2%)
Заголовок : eng
Язык : English
Default : Нет
Forced : Нет
Текст #1
Идентификатор : 5
Формат : UTF-8
Идентификатор кодека : S_TEXT/UTF8
Идентификатор кодека/Информация : UTF-8 Plain Text
Язык : Russian
Default : Нет
Forced : Нет
Текст #2
Идентификатор : 6
Формат : UTF-8
Идентификатор кодека : S_TEXT/UTF8
Идентификатор кодека/Информация : UTF-8 Plain Text
Язык : English
Default : Нет
Forced : Нет
Меню
00:00:00.000 : en:00:00:00.000
00:11:55.680 : en:00:11:55.680
00:18:03.000 : en:00:18:03.000
00:32:22.000 : en:00:32:22.000
00:41:18.680 : en:00:41:18.680
00:49:56.560 : en:00:49:56.560

Релиз подготовлен 60 - fps



Последний раз редактировалось: Kryl (2017-05-04 06:24), всего редактировалось 7 раз(а)

[Цитировать]
evro.

Шикарно! Огромное спасибо!

[Цитировать]
zizu

Отличное качество Да
 
Показать сообщения:    

Текущее время: 23-Июл 21:43

Часовой пояс: UTC + 3


Вы не можете начинать темы
Вы не можете отвечать на сообщения
Вы не можете редактировать свои сообщения
Вы не можете удалять свои сообщения
Вы не можете голосовать в опросах
Вы не можете прикреплять файлы к сообщениям
Вы не можете скачивать файлы