VIP

Интерстеллар / Interstellar (2014) BDRip 1080p | IMAX Edition | 60fps Проект Power / Project Power (2020) WEBRip 1080p | 60 fps Доктор Стрэндж / Doctor Strange (2016) BDRip 1080p | 60 fps Новые мутанты / The New Mutants (2020) BDRip 1080p | 60 fps Грань будущего / Edge of Tomorrow (2014) BDRip 1080p | 60 fps Бессмертная гвардия / The Old Guard (2020) WEBRip 1080p | 60 fps Тор: Рагнарёк / Thor: Ragnarok (2017) BDRip 1080p | 60 fps Люси / Lucy (2014) BDRip 1080p | 60 fps
  1. Longevity:
    6 years 4 months
    Posts:
    2414
    Gender:
    Male
    «Кульминация великого противостояния» Информация
    Название: Планета обезьян: Война
    Оригинальное название: War for the Planet of the Apes
    Год выхода: 2017
    Жанр: фантастика, боевик, триллер, драма, приключения
    Режиссер: Мэтт Ривз
    Сценарий: Марк Бомбэк, Мэтт Ривз, Рик Джаффа
    Продюсер: Марк Бомбэк, Питер Чернин, Дилан Кларк
    В ролях: Энди Серкис, Вуди Харрельсон, Стив Зан, Карин Коновал, Амайя Миллер, Терри Нотари, Тай Олссон, Майкл Адамуэйт, Тоби Кеббелл, Гэбриел Чаварриа

    Сюжет:
    Армию генетически модифицированных обезьян ожидает новый вызов: они вынуждены вступить в смертельную схватку с армией людей под руководством безжалостного полковника. После невообразимых потерь среди своих воинов вождь обезьян Цезарь начинает личную борьбу с темными инстинктами и собирается отомстить за весь свой вид. В конце концов он и полковник должны будут сойтись в эпической битве, которая решит, кто теперь будет править на Земле — люди или обезьяны.

    Страна: США, Канада, Новая Зеландия
    Продолжительность: 02:20:10

    Файл
    Кодек: MPEG4/ISO/AVC/H.264/[email protected]
    Формат: MKV
    Качество: BDRip 1080p | 60 fps
    Видео: 1920 x 800 (2.400) | 59.940 fps | 24.0 Мбит/сек
    Аудио 01: DTS | 5.1 | 48 kHz | 768 kbps | 24 bit | Дубляж - Лицензия |
    Аудио 02: AC3 | 5.1 | 48 kHz | 640 kbps | 16 bit | English |
    Субтитры: Русские (forced, full), английские

    MedifInfo

    Видео
    Идентификатор : 1
    Формат : AVC
    Формат/Информация : Advanced Video Codec
    Профиль формата : [email protected]
    Параметр CABAC формата : Да
    Параметр ReFrames формата : 3 кадра
    Идентификатор кодека : V_MPEG4/ISO/AVC
    Продолжительность : 2 ч. 20 м.
    Вид битрейта : Переменный
    Битрейт : 23,0 Мбит/сек
    Максимальный битрейт : 24,0 Мбит/сек
    Ширина : 1920 пикселей
    Высота : 800 пикселей
    Соотношение сторон : 2,40:1
    Режим частоты кадров : Постоянный
    Частота кадров : 59,880 кадров/сек
    Частота кадров в оригинале : 59,940 кадров/сек
    Стандарт вещания : PAL
    Цветовое пространство : YUV
    Субдискретизация насыщенности : 4:2:0
    Битовая глубина : 8 бит
    Тип развёртки : Прогрессивная
    Бит/(Пиксели*Кадры) : 0.250
    Размер потока : 22,5 Гбайт (92%)
    Заголовок : www.60-fps.org
    Язык : English
    Default : Да
    Forced : Нет
    Основные цвета : BT.709
    Характеристики трансфера : BT.709
    Коэффициенты матрицы : BT.709
    colour_range : Limited
    Аудио #1
    Идентификатор : 2
    Формат : DTS
    Формат/Информация : Digital Theater Systems
    Режим : 16
    Параметр Endianness формата : Big
    Идентификатор кодека : A_DTS
    Продолжительность : 2 ч. 20 м.
    Вид битрейта : Постоянный
    Битрейт : 768 Кбит/сек
    Каналы : 6 каналов
    Расположение каналов : Front: L C R, Side: L R, LFE
    Частота : 48,0 КГц
    Битовая глубина : 24 бит
    Метод сжатия : С потерями
    Размер потока : 770 Мбайт (3%)
    Заголовок : Дубляж - лицензия
    Язык : Russian
    Default : Да
    Forced : Нет
    Аудио #2
    Идентификатор : 3
    Формат : AC-3
    Формат/Информация : Audio Coding 3
    Расширение режима : CM (complete main)
    Параметр Endianness формата : Big
    Идентификатор кодека : A_AC3
    Продолжительность : 2 ч. 20 м.
    Вид битрейта : Постоянный
    Битрейт : 640 Кбит/сек
    Каналы : 6 каналов
    Расположение каналов : Front: L C R, Side: L R, LFE
    Частота : 48,0 КГц
    Битовая глубина : 16 бит
    Метод сжатия : С потерями
    Размер потока : 642 Мбайт (3%)
    Заголовок : Original
    Язык : English
    Default : Нет
    Forced : Нет
    Текст #1
    Идентификатор : 4
    Формат : UTF-8
    Идентификатор кодека : S_TEXT/UTF8
    Идентификатор кодека/Информация : UTF-8 Plain Text
    Заголовок : Forced
    Язык : Russian
    Default : Да
    Forced : Нет
    Текст #2
    Идентификатор : 5
    Формат : UTF-8
    Идентификатор кодека : S_TEXT/UTF8
    Идентификатор кодека/Информация : UTF-8 Plain Text
    Заголовок : Full
    Язык : Russian
    Default : Нет
    Forced : Нет
    Текст #3
    Идентификатор : 6
    Формат : UTF-8
    Идентификатор кодека : S_TEXT/UTF8
    Идентификатор кодека/Информация : UTF-8 Plain Text
    Заголовок : Full
    Язык : English
    Default : Нет
    Forced : Нет
    Текст #4
    Идентификатор : 7
    Формат : UTF-8
    Идентификатор кодека : S_TEXT/UTF8
    Идентификатор кодека/Информация : UTF-8 Plain Text
    Заголовок : SDH
    Язык : English
    Default : Нет
    Forced : Нет
    Меню
    00:00:00.000 : en:00:00:00.000
    00:05:05.889 : en:00:05:05.889
    00:09:06.713 : en:00:09:06.713
    00:12:14.108 : en:00:12:14.108
    00:18:21.017 : en:00:18:21.017
    00:25:04.503 : en:00:25:04.503
    00:30:17.399 : en:00:30:17.399
    00:34:13.093 : en:00:34:13.093
    00:37:46.347 : en:00:37:46.347
    00:42:54.447 : en:00:42:54.447
    00:49:31.802 : en:00:49:31.802
    00:54:14.626 : en:00:54:14.626
    00:58:49.818 : en:00:58:49.818
    01:05:24.129 : en:01:05:24.129
    01:10:18.381 : en:01:10:18.381
    01:14:53.823 : en:01:14:53.823
    01:18:59.193 : en:01:18:59.193
    01:25:35.672 : en:01:25:35.672
    01:29:37.372 : en:01:29:37.372
    01:34:22.824 : en:01:34:22.824
    01:39:27.712 : en:01:39:27.712
    01:43:48.222 : en:01:43:48.222
    01:48:45.394 : en:01:48:45.394
    01:55:20.580 : en:01:55:20.580
    01:58:04.703 : en:01:58:04.703
    02:02:33.930 : en:02:02:33.930
    02:05:54.797 : en:02:05:54.797
    02:12:51.213 : en:02:12:51.213

    Release was prepared by 60-fps.org



    Last edited by Kryl on 2017-11-25 11:13; edited 4 times in total
  2. Longevity:
    3 years 5 months
    Posts:
    9
    Gender:
    Male
    Ура наконец-то ка же я ждал этот фильм)))) Да Да Да
    16-Oct-2017 20:11 (after 2 hours 34 minutes)
  3. Longevity:
    4 years 6 months
    Posts:
    1575
    Gender:
    Male
    Ожидание скоростяяяя давай... Краснею
    18-Oct-2017 17:14 (after 1 day 21 hour)


You cannot post new topics in this forum
You cannot reply to topics in this forum
You cannot edit your posts in this forum
You cannot delete your posts in this forum
You cannot vote in polls in this forum
You cannot attach files in this forum
You cannot download files in this forum