[Цитировать]
Kryl

«Взгляните на мир глазами загадочного незнакомца»- Информация
Название: Планета Ка-Пэкс
Оригинальное название: K-PAX
Год выхода: 2001
Жанр: Фантастика, драма
Режиссер: Иэн Софтли
Сценарий: Чарльз Ливитт, Джин Брюэр
Продюсер: Роберт Ф. Коулсберри, Лоуренс Гордон, Ллойд Левин
В ролях: Кевин Спейси, Джефф Бриджес, Мэри МакКормак, Элфри Вудард, Дэвид Патрик Келли, Сол Уильямс, Питер Герети, Селия Уэстон, Аджай Найду, Трэйси Вилар
--Сюжет:
В Манхэттенский психиатрический институт привозят странного человека в черных очках. Он зовет себя Протом и утверждает, что его родина — далекая планета Ка-Пэкс, откуда он мгновенно перенесся на Землю в луче света. Несмотря на все усилия, опытному доктору Пауэллу не удается разгадать загадку таинственного пациента, который охотно и весьма убедительно доказывает всем свое внеземное происхождение и заранее назначает дату своего возвращения на Ка-Пэкс.
Вскоре Марка Пауэлла, так и не сумевшего приоткрыть тайну личности своего самого удивительного подопечного, начинает тревожить невероятная, но навязчивая мысль: может быть, Прот вовсе не сумасшедший и в его словах есть доля правды…
- Страна: Германия, США
Продолжительность: 02:18:06

Файл
Кодек: MPEG4/ISO/AVC H.264
Формат: MKV
Качество: D-TheaterRip 720p | 60 fps
Видео: 1280 x 544 (2.353) | 59.940 fps | 9.0 Мбит/сек
Аудио 1: AC3 | 5.1 | 48 kHz | 384 kbps | 16 bit | Многоголосый, Liga HQ |
Аудио 2: AC3 | 5.1 | 48 kHz | 448 kbps | 16 bit | Двухголосый, Twister / Paradise |
Аудио 3: AC3 | 5.1 | 48 kHz | 448 kbps | 16 bit | Многоголосый, LDV |
Аудио 4: AC3 | 2.0 | 48 kHz | 192 kbps | 16 bit | Двухголосый, НТВ+ |
Аудио 5: AC3 | 5.1 | 48 kHz | 448 kbps | 16 bit | Авторский, Ю. Сербин |
Аудио 6: AC3 | 5.1 | 48 kHz | 448 kbps | 16 bit | Авторский, С. Визгунов |
Аудио 7: AC3 | 5.1 | 48 kHz | 448 kbps | 16 bit | Авторский, Ю. Живов |
Аудио 8: AC3 | 5.1 | 48 kHz | 448 kbps | 16 bit | ENG |
Субтитры: Русские, Eng

Формат исходника D-Theater:

D-Theater - Бренд ассоциации 5-6 крупнейших студий Голливуда, который гарантирует хороший звук и ремастеренг картинки.
Магнитный носитель D-Theater с виду похож на обычную видеокассету, однако имеет ёмкость до 50 ГБ и за счёт этого способен нести на себе полноценное 720p / 1080i видео высокой чёткости. Является предшественником Blu-Ray и HD-DVD, обеспечивает близкое к ним качество изображения и звука. На этом носителе было выпущено всего чуть более 30 фильмов.

MedifInfo

Видео
Идентификатор : 1
Формат : AVC
Формат/Информация : Advanced Video Codec
Профиль формата : High@L4.1
Параметр CABAC формата : Да
Параметр ReFrames формата : 3 кадра
Идентификатор кодека : V_MPEG4/ISO/AVC
Продолжительность : 2 ч. 0 м.
Вид битрейта : Переменный
Битрейт : 8581 Кбит/сек
Максимальный битрейт : 9000 Кбит/сек
Ширина : 1280 пикселей
Высота : 544 пикселя
Соотношение сторон : 2,35:1
Режим частоты кадров : Постоянный
Частота кадров : 59,880 кадров/сек
Частота кадров в оригинале : 59,940 кадров/сек
Стандарт вещания : PAL
Цветовое пространство : YUV
Субдискретизация насыщенности : 4:2:0
Битовая глубина : 8 бит
Тип развёртки : Прогрессивная
Бит/(Пиксели*Кадры) : 0.206
Размер потока : 7,21 Гбайт (71%)
Заголовок : www.60-fps.org
Язык : English
Default : Да
Forced : Нет
Основные цвета : BT.601 NTSC
Характеристики трансфера : BT.601
Коэффициенты матрицы : BT.601
colour_range : Limited
Аудио #1
Идентификатор : 2
Формат : AC-3
Формат/Информация : Audio Coding 3
Расширение режима : CM (complete main)
Параметр Endianness формата : Big
Идентификатор кодека : A_AC3
Продолжительность : 2 ч. 0 м.
Вид битрейта : Постоянный
Битрейт : 384 Кбит/сек
Каналы : 6 каналов
Расположение каналов : Front: L C R, Side: L R, LFE
Частота : 48,0 КГц
Битовая глубина : 16 бит
Метод сжатия : С потерями
Размер потока : 331 Мбайт (3%)
Заголовок : Многоголосый, Liga HQ
Язык : Russian
Default : Да
Forced : Нет
Аудио #2
Идентификатор : 3
Формат : AC-3
Формат/Информация : Audio Coding 3
Расширение режима : CM (complete main)
Параметр Endianness формата : Big
Идентификатор кодека : A_AC3
Продолжительность : 2 ч. 0 м.
Вид битрейта : Постоянный
Битрейт : 448 Кбит/сек
Каналы : 6 каналов
Расположение каналов : Front: L C R, Side: L R, LFE
Частота : 48,0 КГц
Битовая глубина : 16 бит
Метод сжатия : С потерями
Размер потока : 386 Мбайт (4%)
Заголовок : Двухголосый, Twister / Paradise
Язык : Russian
Default : Нет
Forced : Нет
Аудио #3
Идентификатор : 4
Формат : AC-3
Формат/Информация : Audio Coding 3
Расширение режима : CM (complete main)
Параметр Endianness формата : Big
Идентификатор кодека : A_AC3
Продолжительность : 2 ч. 0 м.
Вид битрейта : Постоянный
Битрейт : 448 Кбит/сек
Каналы : 6 каналов
Расположение каналов : Front: L C R, Side: L R, LFE
Частота : 48,0 КГц
Битовая глубина : 16 бит
Метод сжатия : С потерями
Размер потока : 386 Мбайт (4%)
Заголовок : Многоголосый, LDV
Язык : Russian
Default : Нет
Forced : Нет
Аудио #4
Идентификатор : 5
Формат : AC-3
Формат/Информация : Audio Coding 3
Расширение режима : CM (complete main)
Параметр Endianness формата : Big
Идентификатор кодека : A_AC3
Продолжительность : 2 ч. 0 м.
Вид битрейта : Постоянный
Битрейт : 192 Кбит/сек
Каналы : 2 канала
Расположение каналов : Front: L R
Частота : 48,0 КГц
Битовая глубина : 16 бит
Метод сжатия : С потерями
Размер потока : 165 Мбайт (2%)
Заголовок : Двухголосый, НТВ+
Default : Нет
Forced : Нет
Аудио #5
Идентификатор : 6
Формат : AC-3
Формат/Информация : Audio Coding 3
Расширение режима : CM (complete main)
Параметр Endianness формата : Big
Идентификатор кодека : A_AC3
Продолжительность : 2 ч. 0 м.
Вид битрейта : Постоянный
Битрейт : 448 Кбит/сек
Каналы : 6 каналов
Расположение каналов : Front: L C R, Side: L R, LFE
Частота : 48,0 КГц
Битовая глубина : 16 бит
Метод сжатия : С потерями
Размер потока : 386 Мбайт (4%)
Заголовок : Авторский, Ю. Сербин
Язык : Russian
Default : Нет
Forced : Нет
Аудио #6
Идентификатор : 7
Формат : AC-3
Формат/Информация : Audio Coding 3
Расширение режима : CM (complete main)
Параметр Endianness формата : Big
Идентификатор кодека : A_AC3
Продолжительность : 2 ч. 0 м.
Вид битрейта : Постоянный
Битрейт : 448 Кбит/сек
Каналы : 6 каналов
Расположение каналов : Front: L C R, Side: L R, LFE
Частота : 48,0 КГц
Битовая глубина : 16 бит
Метод сжатия : С потерями
Размер потока : 386 Мбайт (4%)
Заголовок : Авторский, С. Визгунов
Язык : Russian
Default : Нет
Forced : Нет
Аудио #7
Идентификатор : 8
Формат : AC-3
Формат/Информация : Audio Coding 3
Расширение режима : CM (complete main)
Параметр Endianness формата : Big
Идентификатор кодека : A_AC3
Продолжительность : 2 ч. 0 м.
Вид битрейта : Постоянный
Битрейт : 448 Кбит/сек
Каналы : 6 каналов
Расположение каналов : Front: L C R, Side: L R, LFE
Частота : 48,0 КГц
Битовая глубина : 16 бит
Метод сжатия : С потерями
Размер потока : 386 Мбайт (4%)
Заголовок : Авторский, Ю. Живов
Язык : Russian
Default : Нет
Forced : Нет
Аудио #8
Идентификатор : 9
Формат : AC-3
Формат/Информация : Audio Coding 3
Расширение режима : CM (complete main)
Параметр Endianness формата : Big
Идентификатор кодека : A_AC3
Продолжительность : 2 ч. 0 м.
Вид битрейта : Постоянный
Битрейт : 448 Кбит/сек
Каналы : 6 каналов
Расположение каналов : Front: L C R, Side: L R, LFE
Частота : 48,0 КГц
Битовая глубина : 16 бит
Метод сжатия : С потерями
Размер потока : 386 Мбайт (4%)
Заголовок : Оригинал, Английский
Язык : English
Default : Нет
Forced : Нет
Текст #1
Идентификатор : 10
Формат : UTF-8
Идентификатор кодека : S_TEXT/UTF8
Идентификатор кодека/Информация : UTF-8 Plain Text
Язык : Russian
Default : Нет
Forced : Нет
Текст #2
Идентификатор : 11
Формат : UTF-8
Идентификатор кодека : S_TEXT/UTF8
Идентификатор кодека/Информация : UTF-8 Plain Text
Язык : English
Default : Нет
Forced : Нет
Меню
00:00:00.000 : en:Main Titles
00:02:09.400 : en:I Didn't Arrive By Train
00:09:19.309 : en:Why Did You Come to This Planet?
00:18:13.342 : en:A Painful Procedure
00:23:34.121 : en:A Lot Like Home
00:36:19.884 : en:Twin Solar System
00:43:24.811 : en:Blue Bird
00:47:16.625 : en:Planning to Return
00:52:23.724 : en:The Fourth of July
00:59:38.377 : en:The Sprinklers
01:07:00.892 : en:Hypnosis
01:14:32.102 : en:Sarah
01:22:39.705 : en:27Th July 1996
01:27:34.958 : en:Robert Porter
01:37:22.503 : en:Connected
01:47:14.887 : en:A Beam of Light
01:51:33.020 : en:This Time Is All You Have
01:55:17.994 : en:End Titles
01:59:14.689 : en:The End

Релиз подготовлен 60 - fps

 
Показать сообщения:    

Текущее время: 03-Дек 16:44

Часовой пояс: UTC + 3


Вы не можете начинать темы
Вы не можете отвечать на сообщения
Вы не можете редактировать свои сообщения
Вы не можете удалять свои сообщения
Вы не можете голосовать в опросах
Вы не можете прикреплять файлы к сообщениям
Вы не можете скачивать файлы