[Цитировать]
Гость

-Название: Питер Пэн
Оригинальное название: Peter Pan
Год выпуска: 1953
Страна: США
Жанр: мультфильм, фэнтези, приключения, семейный, музыка
Продолжительность: 01:16:46
Перевод: Дубляж
Субтитры: русские (Полные), английские (Полные)-Режиссер: Клайд Джероними / Clyde Geronimi, Уилфред Джексон / Wilfred Jackson, Хэмильтон Ласки / Hamilton Luske-В ролях: Бобби Дрисколл (Peter Pan, озвучка), Катрин Бомонт (Wendy Darling, озвучка), Ганс Конрид (Captain Hook / Mr. Darling, озвучка), Билл Томпсон (Mr. Smee / Pirates, озвучка), Хэзер Эйнджел (Mrs. Darling, озвучка), Пол Коллинз (John Darling, озвучка), Томми Ласки (Michael Darling, озвучка), Кэнди Кандидо (Indian Chief, озвучка), Том Конуэй (рассказчик, озвучка), Тони Бутала (Lost Boy, озвучка, в титрах не указан), Кэрол Кумбс (озвучка, в титрах не указана), Роберт Эллис (Lost Boy, озвучка, в титрах не указан)-Описание:
Уолт Дисней зовет нас с собой в волшебную страну Неверленд, где живет удивительный мальчик, который умеет летать и отказывается взрослеть. Это веселый выдумщик, храбрец и проказник Питер Пэн!
Однажды в поисках собственной тени Питер попадает в Лондон нашего мира и становится другом маленькой Венди и ее братьев Майкла и Джона, и, конечно же, он берет своих ночных друзей с собой в Неверленд, навстречу потрясающим приключениям.
Героям предстоит встретиться с феей Тинкербелл и дружной ватагой Питера Пэна, спасти индейскую принцессу Тигровую Лилию из лап пиратов и сразиться с их демоническим главарем капитаном Крюком!..-Рейтинг

imdb.com: 7.40 (56 737)
MPAA: G - Нет возрастных ограничений-Автор рипа:Tiberiumsun69
-Качество: BDRip 1080p / 60 FPS
Формат: MKV
Видео кодек: AVC
Аудио кодек:AC3
Видео: AVC, 1440x1080, 10000 kbps, 59,940 fps
Аудио №1: русский / AC3 / 5.1 / 48 kHz / 640 kbps / 16 bit |Дубляж|
Аудио №2: английский / AC3 / 5.1 / 48 kHz / 640 kbps / 16 bit
Навигация по главам: есть- -

MI

General
Unique ID : 231886960244811025839062712106890429940 (0xAE73CDD5E1FA5C5294CEC4C6B7AE05F4)
Complete name : A:1080p 60fpsПитер Пэн 1953 1080p 60fps.mkv
Format : Matroska
Format version : Version 4 / Version 2
File size : 6.05 GiB
Duration : 1h 16mn
Overall bit rate : 11.3 Mbps
Encoded date : UTC 2014-10-19 12:58:34
Writing application : mkvmerge v6.9.1 ('Blue Panther') 64bit built on Apr 18 2014 18:23:38
Writing library : libebml v1.3.0 + libmatroska v1.4.1
Video
ID : 1
Format : AVC
Format/Info : Advanced Video Codec
Format profile : High@L4.1
Format settings, CABAC : Yes
Format settings, ReFrames : 4 frames
Codec ID : V_MPEG4/ISO/AVC
Duration : 1h 16mn
Bit rate : 10 000 Kbps
Width : 1 440 pixels
Height : 1 080 pixels
Display aspect ratio : 4:3
Frame rate : 59.940 fps
Color space : YUV
Chroma subsampling : 4:2:0
Bit depth : 8 bits
Scan type : Progressive
Bits/(Pixel*Frame) : 0.107
Stream size : 5.24 GiB (87%)
Writing library : x264 core 130 r2273 b3065e6
Encoding settings : cabac=1 / ref=4 / deblock=1:-1:-1 / analyse=0x3:0 / me=umh / subme=9 / psy=1 / psy_rd=0.80:0.00 / mixed_ref=1 / me_range=44 / chroma_me=0 / trellis=2 / 8x8dct=1 / cqm=0 / deadzone=21,11 / fast_pskip=0 / chroma_qp_offset=-2 / threads=12 / lookahead_threads=1 / sliced_threads=0 / nr=0 / decimate=0 / interlaced=0 / bluray_compat=0 / constrained_intra=0 / bframes=5 / b_pyramid=2 / b_adapt=2 / b_bias=0 / direct=3 / weightb=1 / open_gop=0 / weightp=2 / keyint=250 / keyint_min=59 / scenecut=40 / intra_refresh=0 / rc_lookahead=60 / rc=2pass / mbtree=1 / bitrate=10000 / ratetol=1.0 / qcomp=0.80 / qpmin=0 / qpmax=69 / qpstep=4 / cplxblur=20.0 / qblur=0.5 / ip_ratio=1.40 / aq=1:0.80
Language : English
Default : Yes
Forced : No
Audio #1
ID : 2
Format : AC-3
Format/Info : Audio Coding 3
Mode extension : CM (complete main)
Codec ID : A_AC3
Duration : 1h 16mn
Bit rate mode : Constant
Bit rate : 640 Kbps
Channel(s) : 6 channels
Channel positions : Front: L C R, Side: L R, LFE
Sampling rate : 48.0 KHz
Bit depth : 16 bits
Compression mode : Lossy
Stream size : 351 MiB (6%)
Title : Дубляж
Language : Russian
Default : Yes
Forced : No
Audio #2
ID : 3
Format : AC-3
Format/Info : Audio Coding 3
Mode extension : CM (complete main)
Codec ID : A_AC3
Duration : 1h 16mn
Bit rate mode : Constant
Bit rate : 640 Kbps
Channel(s) : 6 channels
Channel positions : Front: L C R, Side: L R, LFE
Sampling rate : 48.0 KHz
Bit depth : 16 bits
Compression mode : Lossy
Stream size : 351 MiB (6%)
Title : Оригинал
Language : English
Default : No
Forced : No
Text #1
ID : 4
Format : UTF-8
Codec ID : S_TEXT/UTF8
Codec ID/Info : UTF-8 Plain Text
Title : Полные
Language : Russian
Default : No
Forced : No
Text #2
ID : 5
Format : UTF-8
Codec ID : S_TEXT/UTF8
Codec ID/Info : UTF-8 Plain Text
Title : Полные
Language : English
Default : No
Forced : No
Menu
00:00:00.000 : en:Chapter 1
00:01:49.526 : en:Chapter 2
00:03:46.351 : en:Chapter 3
00:07:40.877 : en:Chapter 4
00:10:20.453 : en:Chapter 5
00:12:22.783 : en:Chapter 6
00:15:09.700 : en:Chapter 7
00:16:13.639 : en:Chapter 8
00:18:06.043 : en:Chapter 9
00:20:28.602 : en:Chapter 10
00:25:18.058 : en:Chapter 11
00:27:38.490 : en:Chapter 12
00:31:48.823 : en:Chapter 13
00:33:59.704 : en:Chapter 14
00:36:31.397 : en:Chapter 15
00:38:19.672 : en:Chapter 16
00:42:30.047 : en:Chapter 17
00:43:46.081 : en:Chapter 18
00:45:51.540 : en:Chapter 19
00:46:59.608 : en:Chapter 20
00:50:08.588 : en:Chapter 21
00:52:52.627 : en:Chapter 22
00:56:25.673 : en:Chapter 23
00:58:28.880 : en:Chapter 24
01:01:59.298 : en:Chapter 25
01:04:30.491 : en:Chapter 26
01:06:21.727 : en:Chapter 27
01:07:40.431 : en:Chapter 28
01:10:13.667 : en:Chapter 29
01:12:47.404 : en:Chapter 30
01:14:25.210 : en:Chapter 31
01:16:46.226 : en:Chapter 32

Скриншоты

Просьба к переливающим на другие сайты, в оформлении указывайте пожалуйста авторство рипа - Tiberiumsun69
 
Показать сообщения:    

Текущее время: 23-Сен 08:38

Часовой пояс: UTC + 3


Вы не можете начинать темы
Вы не можете отвечать на сообщения
Вы не можете редактировать свои сообщения
Вы не можете удалять свои сообщения
Вы не можете голосовать в опросах
Вы не можете прикреплять файлы к сообщениям
Вы не можете скачивать файлы