[Цитировать]
envy

Информация о фильме
Оригинальное название: Питер FM
Год выхода: 2006
Жанр: мелодрама, комедия
Режиссер: Оксана Бычкова
Выпущено: Россия
Продолжительность: 01:23:59
Перевод: не требуется
В ролях: Екатерина Федулова, Евгений Цыганов, Владимир Машков, Андрей Краско, Татьяна Кравченко, Александр Баширов, Ирина Рахманова-Сюжет фильма
Маша — диджей на популярном питерском радио, Максим — молодой архитектор. Маша готовится к свадьбе с бывшим одноклассником Костей, Максим победил в международном конкурсе архитекторов, и теперь его зовут на работу в Германию. Но оба они не уверены, что им нужно именно это.
Максима удерживает в Питере любовь к девушке, которая его оставила, а Маша чувствует, что ее жених Костя — совсем не тот человек, который ей нужен. И, кто знает, как бы повернулась их судьба, если бы не Случай — Маша теряет мобильный телефон, а Максим его находит…
Такая история могла произойти только в большом городе, который сталкивает и разводит персонажей на своих улицах. Это лирическая история о двух молодых людях, оказавшихся перед выбором, когда каждый должен решить — что же для него действительно важно?
Возникший между героями «телефонный роман», понимание и тепло, которые они нашли друг в друге, помогают им отыскать верное решение своих проблем. Выбор сделан. И теперь, казалось бы, ничто не мешает Маше и Максиму встретиться…-Файл
Качество: DVDRip (исходник DVD9)
Видео: 720x528, 2453 Кбит/сек, 60.000 кадр/сек, AVC, x264, High@L4.1, 4:3, 0.108 Бит/[Пиксели*Кадры]
Аудио 1: AC-3, 448 Кбит/сек, 6 канала(ов), 48,0 КГц - Оригинал / Русский
Субтитры: Нет
Форсированные субтитры: Нет
Чаптеры (Главы): Нет- -

Скриншоты

MediaInfo

Format : Matroska
Format version : Version 2
File size : 1.74 GiB
Duration : 1h 23mn
Overall bit rate : 2 960 Kbps
Movie name : Питер FM.(2006).DVDRip.[envy].[60fps]
Encoded date : UTC 2015-06-12 05:09:05
Writing application : mkvmerge v5.8.0 ('No Sleep / Pillow') built on Sep 2 2012 15:37:04
Writing library : libebml v1.2.3 + libmatroska v1.3.0
Video
ID : 1
Format : AVC
Format/Info : Advanced Video Codec
Format profile : High@L4.1
Format settings, CABAC : Yes
Format settings, ReFrames : 4 frames
Codec ID : V_MPEG4/ISO/AVC
Duration : 1h 23mn
Bit rate : 2 453 Kbps
Width : 720 pixels
Height : 528 pixels
Display aspect ratio : 4:3
Frame rate mode : Constant
Frame rate : 60.000 fps
Color space : YUV
Chroma subsampling : 4:2:0
Bit depth : 8 bits
Scan type : Progressive
Bits/(Pixel*Frame) : 0.108
Stream size : 1.44 GiB (83%)
Title : Питер FM.(2006).DVDRip.[envy].[60fps]
Writing library : x264 core 130 r2273 b3065e6
Encoding settings : cabac=1 / ref=4 / deblock=1:0:0 / analyse=0x3:0x113 / me=umh / subme=11 / psy=1 / psy_rd=1.00:0.00 / mixed_ref=1 / me_range=24 / chroma_me=1 / trellis=2 / 8x8dct=1 / cqm=0 / deadzone=21,11 / fast_pskip=0 / chroma_qp_offset=-2 / threads=12 / lookahead_threads=1 / sliced_threads=0 / nr=0 / decimate=1 / interlaced=0 / bluray_compat=0 / constrained_intra=0 / bframes=6 / b_pyramid=2 / b_adapt=2 / b_bias=0 / direct=3 / weightb=1 / open_gop=0 / weightp=2 / keyint=250 / keyint_min=25 / scenecut=40 / intra_refresh=0 / rc=crf / mbtree=0 / crf=17.0 / qcomp=0.60 / qpmin=0 / qpmax=69 / qpstep=4 / ip_ratio=1.40 / pb_ratio=1.30 / aq=1:0.90
Language : Russian
Default : Yes
Forced : No
Audio
ID : 2
Format : AC-3
Format/Info : Audio Coding 3
Mode extension : CM (complete main)
Format settings, Endianness : Big
Codec ID : A_AC3
Duration : 1h 23mn
Bit rate mode : Constant
Bit rate : 448 Kbps
Channel(s) : 6 channels
Channel positions : Front: L C R, Side: L R, LFE
Sampling rate : 48.0 KHz
Bit depth : 16 bits
Compression mode : Lossy
Stream size : 269 MiB (15%)
Title : Original
Language : Russian
Default : Yes
Forced : No
 
Показать сообщения:    

Текущее время: 05-Дек 01:26

Часовой пояс: UTC + 3


Вы не можете начинать темы
Вы не можете отвечать на сообщения
Вы не можете редактировать свои сообщения
Вы не можете удалять свои сообщения
Вы не можете голосовать в опросах
Вы не можете прикреплять файлы к сообщениям
Вы не можете скачивать файлы