VIP

  1. Longevity:
    7 years
    Posts:
    2413
    Gender:
    Male
    Информация
    Название: Пираты Карибского моря: Мертвецы не рассказывают сказки
    Оригинальное название: Pirates of the Caribbean: Dead Men Tell No Tales
    Год выхода: 2017
    Жанр: Фэнтези, боевик, комедия, приключения
    Режиссер: Хоаким Роннинг, Эспен Сандберг
    Сценарий: Джефф Натансон, Терри Россио, Тед Эллиот
    Продюсер: Джерри Брукхаймер, Джозеф М. Карачиоло мл., Чад Оман
    В ролях: Джонни Депп, Кира Найтли, Кая Скоделарио, Дэвид Уэнэм, Орландо Блум, Джеффри Раш, Брентон Туэйтс, Хавьер Бардем, Голшифте Фарахани, Стивен Грэм
    --Сюжет:
    Исчерпавший свою удачу капитан Джек Воробей обнаруживает, что за ним охотится его старый неприятель, ужасный капитан Салазар и его призрачные пираты. Они только что сбежали из Дьявольского треугольника и намерены уничтожить всех пиратов, включая Джека. Поможет спастись лишь могущественный артефакт — трезубец Посейдона, который дарует своему обладателю полный контроль над морями.
    -Страна: США
    Продолжительность: 02:09:07

    Файл
    Кодек: MPEG4/ISO/AVC/H.264
    Формат: MKV
    Качество: BDRip 1080p | 60 fps
    Видео: 1920 x 800 (2.400) | 59.940 fps | 27.0 Мбит/сек
    Аудио 01: AC3 | 5.1 | 48 kHz | 640 kbps | 16 bit | Дубляж |
    Аудио 02: AC3 | 5.1 | 48 kHz | 640 kbps | 16 bit | english |
    Субтитры: Russian (Forced, Full), English (Full, SDH)

    MedifInfo

    Видео
    Идентификатор : 1
    Формат : AVC
    Формат/Информация : Advanced Video Codec
    Профиль формата : [email protected]
    Параметр CABAC формата : Да
    Параметр ReFrames формата : 5 кадров
    Идентификатор кодека : V_MPEG4/ISO/AVC
    Продолжительность : 2 ч. 9 м.
    Битрейт : 27,0 Мбит/сек
    Ширина : 1920 пикселей
    Высота : 800 пикселей
    Соотношение сторон : 2,40:1
    Режим частоты кадров : Постоянный
    Частота кадров : 59,880 кадров/сек
    Частота кадров в оригинале : 59,940 кадров/сек
    Цветовое пространство : YUV
    Субдискретизация насыщенности : 4:2:0
    Битовая глубина : 8 бит
    Тип развёртки : Прогрессивная
    Бит/(Пиксели*Кадры) : 0.294
    Размер потока : 23,8 Гбайт (93%)
    Заголовок : www/60-fps.org
    Библиотека кодирования : x264 core 148 r2744 b97ae06
    Настройки программы : cabac=1 / ref=5 / deblock=1:-3:-3 / analyse=0x3:0x113 / me=umh / subme=8 / psy=1 / psy_rd=1.00:0.25 / mixed_ref=1 / me_range=32 / chroma_me=1 / trellis=1 / 8x8dct=1 / cqm=0 / deadzone=6,6 / fast_pskip=1 / chroma_qp_offset=-4 / threads=12 / lookahead_threads=2 / sliced_threads=0 / nr=0 / decimate=0 / interlaced=0 / bluray_compat=0 / constrained_intra=0 / bframes=3 / b_pyramid=2 / b_adapt=1 / b_bias=0 / direct=3 / weightb=1 / open_gop=0 / weightp=2 / keyint=599 / keyint_min=59 / scenecut=40 / intra_refresh=0 / rc_lookahead=50 / rc=2pass / mbtree=1 / bitrate=26999 / ratetol=1.0 / qcomp=0.80 / qpmin=0 / qpmax=69 / qpstep=4 / cplxblur=20.0 / qblur=0.5 / vbv_maxrate=62500 / vbv_bufsize=78125 / nal_hrd=none / filler=0 / ip_ratio=1.10 / aq=1:0.50
    Default : Да
    Forced : Нет
    Аудио #1
    Идентификатор : 2
    Формат : AC-3
    Формат/Информация : Audio Coding 3
    Расширение режима : CM (complete main)
    Параметр Endianness формата : Big
    Идентификатор кодека : A_AC3
    Продолжительность : 2 ч. 9 м.
    Вид битрейта : Постоянный
    Битрейт : 640 Кбит/сек
    Каналы : 6 каналов
    Расположение каналов : Front: L C R, Side: L R, LFE
    Частота : 48,0 КГц
    Битовая глубина : 16 бит
    Метод сжатия : С потерями
    Размер потока : 591 Мбайт (2%)
    Заголовок : ДУбляж - Blu-ray EUR
    Язык : Russian
    Default : Да
    Forced : Нет
    Аудио #2
    Идентификатор : 3
    Формат : AC-3
    Формат/Информация : Audio Coding 3
    Расширение режима : CM (complete main)
    Параметр Endianness формата : Big
    Идентификатор кодека : A_AC3
    Продолжительность : 2 ч. 9 м.
    Вид битрейта : Постоянный
    Битрейт : 640 Кбит/сек
    Каналы : 6 каналов
    Расположение каналов : Front: L C R, Side: L R, LFE
    Частота : 48,0 КГц
    Битовая глубина : 16 бит
    Метод сжатия : С потерями
    Размер потока : 591 Мбайт (2%)
    Заголовок : Original
    Язык : English
    Default : Нет
    Forced : Нет
    Текст #1
    Идентификатор : 4
    Формат : UTF-8
    Идентификатор кодека : S_TEXT/UTF8
    Идентификатор кодека/Информация : UTF-8 Plain Text
    Заголовок : Forced
    Язык : Russian
    Default : Да
    Forced : Нет
    Текст #2
    Идентификатор : 5
    Формат : UTF-8
    Идентификатор кодека : S_TEXT/UTF8
    Идентификатор кодека/Информация : UTF-8 Plain Text
    Заголовок : Full
    Язык : Russian
    Default : Нет
    Forced : Нет
    Текст #3
    Идентификатор : 6
    Формат : UTF-8
    Идентификатор кодека : S_TEXT/UTF8
    Идентификатор кодека/Информация : UTF-8 Plain Text
    Заголовок : Full
    Язык : English
    Default : Нет
    Forced : Нет
    Текст #4
    Идентификатор : 7
    Формат : UTF-8
    Идентификатор кодека : S_TEXT/UTF8
    Идентификатор кодека/Информация : UTF-8 Plain Text
    Заголовок : SDH
    Язык : English
    Default : Нет
    Forced : Нет
    Меню
    00:00:00.000 : en:Chapter 01
    00:05:49.515 : en:Chapter 02
    00:08:34.222 : en:Chapter 03
    00:13:40.820 : en:Chapter 04
    00:16:29.154 : en:Chapter 05
    00:22:33.852 : en:Chapter 06
    00:25:19.267 : en:Chapter 07
    00:28:06.101 : en:Chapter 08
    00:31:41.774 : en:Chapter 09
    00:33:44.814 : en:Chapter 10
    00:37:02.053 : en:Chapter 11
    00:42:27.711 : en:Chapter 12
    00:49:09.071 : en:Chapter 13
    00:54:00.278 : en:Chapter 14
    00:57:19.394 : en:Chapter 15
    01:00:38.718 : en:Chapter 16
    01:08:29.939 : en:Chapter 17
    01:11:57.021 : en:Chapter 18
    01:16:50.939 : en:Chapter 19
    01:19:27.471 : en:Chapter 20
    01:25:04.808 : en:Chapter 21
    01:27:42.173 : en:Chapter 22
    01:31:43.789 : en:Chapter 23
    01:38:22.813 : en:Chapter 24
    01:42:36.775 : en:Chapter 25
    01:47:23.562 : en:Chapter 26
    01:52:58.688 : en:Chapter 27
    01:59:09.934 : en:Chapter 28
    02:09:06.989 : en:Chapter 29

    Release was prepared by 60-fps.org



    Last edited by Kryl on 2017-09-14 07:06; edited 1 time in total
  2. Longevity:
    4 years 11 months
    Posts:
    110
    Gender:
    Male
    Ура!!! Влюблен
    13-Sep-2017 21:35 (after 2 hours 4 minutes)
  3. Longevity:
    4 years 9 months
    Posts:
    1
    Gender:
    Unknown
    Удивляюсь Хитренький
    13-Sep-2017 23:08 (after 1 hour 32 minutes)
  4. Longevity:
    6 years 2 months
    Posts:
    149
    Gender:
    Male
    Огромное Спасибо Овации Овации Овации Улыбаюсь
    22-Oct-2017 13:08 (after 1 month 8 days)
  5. Longevity:
    4 years 9 months
    Posts:
    5
    Gender:
    Unknown
    все части выложите пожалуйста уже
    18-Nov-2017 20:54 (after 27 days)
  6. Longevity:
    5 years 2 months
    Posts:
    1681
    Gender:
    Male
    8941все части выложите пожалуйста уже
    https://60-fps.org/topic-piratyi_karibskogo_morya_k...0_fps-t=999.html
    сто миллионов лет назад это уже сделали...
    19-Nov-2017 00:41 (after 3 hours)
  7. Longevity:
    4 years 9 months
    Posts:
    5
    Gender:
    Unknown
    Талямба, я имел в виду hd качество
    10-Dec-2017 03:19 (after 21 day)


You cannot post new topics in this forum
You cannot reply to topics in this forum
You cannot edit your posts in this forum
You cannot delete your posts in this forum
You cannot vote in polls in this forum
You cannot attach files in this forum
You cannot download files in this forum