VIP

  1. Longevity:
    4 years 10 months
    Posts:
    336
    Gender:
    Male
    Заказать фильмы, клипы или любое другое видео в качестве 60fps может каждый!!!
    Стоимость одного видео 50руб. !!!
    Пишите Талямба в личку, всё обсудите...
    Пираты Карибского моря: Коллекция / Pirates of the Caribbean: Collection (2003-2017) BDRip 1080p | 60 fps «Пираты Карибского моря» — серия приключенческих фильмов о пиратах в Карибском море, режиссёрами которых выступили Гор Вербински (1—3 части), Роб Маршалл (4-я часть), Эспен Сандберг и Юаким Рённинг (5-я часть). Сценарий к фильмам писали Терри Россио и Тед Эллиот (1—4 части), Джефф Натансон (5-я часть), а спродюсированы они были Джерри Брукхаймером. Фильмы были сняты после открытия аттракционов в Диснейлендах, а также при поддержке кинокомпании Walt Disney Pictures. Сюжеты фильмов соединяют воедино и преобразовывают многочисленные мифы, легенды и реальные истории, связанные с кораблями и пиратами. В частности, новый виток приобретает легенда о летучем голландце.
    Главные герои франшизы — пиратский капитан Джек Воробей (Джонни Депп), кузнец и сын пирата Уилл Тёрнер (Орландо Блум) и дочь губернатора Элизабет Суонн (Кира Найтли). В то время как пиратский/британский капитан Гектор Барбосса (Джеффри Раш) и пиратский боцман Джошами Гиббс (Кевин МакНелли) следуют за их приключениями. Также главными героями являются в четвёртой части — Анжелика (Пенелопа Крус) и её отец Черная Борода (Иэн Макшейн), в пятой части — сын Тёрнеров Генри Тёрнер (Брентон Туэйтес), дочь Барбоссы Карина Смит (Кая Скоделарио) и заклятый враг Джека Армандо Салазар (Хавьер Бардем).
    Первый фильм серии — «Пираты Карибского моря: Проклятие Чёрной жемчужины» — вышел 9 июля 2003 года. Успех картины побудил Walt Disney Pictures сделать трилогию, сняв ещё два фильма.
    7 июля 2006 года последовало продолжение — «Пираты Карибского моря: Сундук мертвеца». Фильм собрал более миллиарда долларов в мировом прокате, что поставило его на третье место в списке самых кассовых фильмов (по состоянию на 2006 год).
    25 мая 2007 года состоялась премьера третьего фильма — «Пираты Карибского моря: На краю света». Общие сборы всей трилогии составили более 2 млрд долларов. В сентябре 2008 года Джонни Депп подписал контракт на съёмки в четвёртом фильме серии.
    «Пираты Карибского моря: На странных берегах» вышел 20 мая 2011 года в форматах 2D, IMAX, 3D и IMAX 3D.
    Пятый фильм саги под названием «Пираты Карибского моря: Мертвецы не рассказывают сказки» вышел 25 мая 2017 года.

    Пираты Карибского моря: Проклятие Черной жемчужины / Pirates of the Caribbean: The Curse of the Black Pearl (2003)

    Пираты Карибского моря: Проклятие Черной жемчужины / Pirates of the Caribbean: The Curse of the Black Pearl (2003)
    Год выпуска: 2003 г.
    Жанр: Фэнтези, боевик, приключения
    Страна: США
    Режиссер: Гор Вербински
    Продолжительность: 02:23:10
    Перевод: Дубляж, многоголосый закадровый, двухголосый закадровый, авторский
    В ролях: Джонни Депп, Джеффри Раш, Орландо Блум, Кира Найтли, Джек Девенпорт, Джонатан Прайс, Ли Аренберг, Маккензи Крук, Дэмиан О’Хейр, Джиллз Нью
    Описание: Жизнь харизматичного авантюриста, капитана Джека Воробья, полная увлекательных приключений, резко меняется, когда его заклятый враг — капитан Барбосса — похищает корабль Джека, Черную Жемчужину, а затем нападает на Порт Ройал и крадет прекрасную дочь губернатора, Элизабет Свонн.
    Друг детства Элизабет, Уилл Тернер, вместе с Джеком возглавляет спасательную экспедицию на самом быстром корабле Британии, в попытке вызволить девушку из плена и заодно отобрать у злодея Черную Жемчужину. Вслед за этой парочкой отправляется амбициозный коммодор Норрингтон, который к тому же числится женихом Элизабет.
    Однако Уилл не знает, что над Барбоссой висит вечное проклятие, при лунном свете превращающее его с командой в живых скелетов. Проклятье будет снято лишь тогда, когда украденное золото Ацтеков будет возвращено пиратами на старое место.

    Формат видео: MKV
    Качество видео: BDRip 1080p | 60fps
    Видео кодек: H.264
    Аудио кодек: AC3
    Видео: 1920*800, 20,0 Мбит/сек, 59,940 кадров/сек
    Аудио 1: Русский, AC3, 6 ch, 640 Кбит/с Дубляж, Custom
    Аудио 2: Русский, AC3, 6 ch, 640 Кбит/с Дубляж, Blu-ray
    Аудио 3: Русский, AC3, 6 ch, 448 Кбит/с Многоголосый закадровый, R5
    Аудио 4: Русский, AC3, 6 ch, 384 Кбит/с Двухголосый закадровый, Парус-Видео
    Аудио 5: Русский, AC3, 6 ch, 640 Кбит/с Двухголосый закадровый, П. Гланц и И. Королёва
    Аудио 6: Русский, AC3, 6 ch, 640 Кбит/с Одноголосый закадровый, А. Гаврилов
    Аудио 7: Русский, AC3, 6 ch, 640 Кбит/с Одноголосый закадровый, Ю.Сербин
    Аудио 8: Русский, AC3, 6 ch, 640 Кбит/с Одноголосый закадровый, Ю. Живов
    Аудио 9: Русский, AC3, 2 ch, 224 Кбит/с Одноголосый закадровый, А.Карповский
    Аудио 10: Украинский, AC3, 2 ch, 192 Кбит/с Дубляж, Blu-ray
    Аудио 11: Английский, AC3, 6 ch, 640 Кбит/с Оригинал
    Субтитры: Русские, английские
    Главы: Есть

    Отчёт MediaInfo

    Общее
    Уникальный идентификатор : 196483236584796368791630643989984467405 (0x93D14B7DF7F5515595286ECB32BE59CD)
    Полное имя : D:\Movie\Пираты Карибского моря. Коллекция\1 Пираты Карибского моря Проклятие Черной жемчужины (2003).mkv
    Формат : Matroska
    Версия формата : Version 2
    Размер файла : 25,7 Гбайт
    Продолжительность : 2 ч. 23 м.
    Общий поток : 25,7 Мбит/сек
    Название фильма : Проклятие Черной жемчужины
    Дата кодирования : UTC 2021-09-19 05:42:06
    Программа кодирования : mkvmerge v5.8.0 ('No Sleep / Pillow') built on Sep 2 2012 15:37:04
    Библиотека кодирования : libebml v1.2.3 + libmatroska v1.3.0
    Attachments : Poster
    Видео
    Идентификатор : 1
    Формат : AVC
    Формат/Информация : Advanced Video Codec
    Профиль формата : High@L4.1
    Параметр CABAC формата : Да
    Параметр ReFrames формата : 5 кадров
    Режим смешивания : Header stripping
    Идентификатор кодека : V_MPEG4/ISO/AVC
    Продолжительность : 2 ч. 23 м.
    Битрейт : 20,0 Мбит/сек
    Ширина : 1920 пикселей
    Высота : 800 пикселей
    Соотношение сторон : 2,40:1
    Режим частоты кадров : Постоянный
    Частота кадров : 59,940 (60000/1001) кадров/сек
    Цветовое пространство : YUV
    Субдискретизация насыщенности : 4:2:0
    Битовая глубина : 8 бит
    Тип развёртки : Прогрессивная
    Бит/(Пиксели*Кадры) : 0.217
    Размер потока : 19,5 Гбайт (76%)
    Библиотека кодирования : x264 core 146 r2538 121396c
    Настройки программы : cabac=1 / ref=5 / deblock=1:0:0 / analyse=0x3:0x113 / me=umh / subme=8 / psy=1 / psy_rd=1.00:0.25 / mixed_ref=1 / me_range=32 / chroma_me=1 / trellis=1 / 8x8dct=1 / cqm=0 / deadzone=6,6 / fast_pskip=1 / chroma_qp_offset=-4 / threads=12 / lookahead_threads=3 / sliced_threads=0 / nr=0 / decimate=0 / interlaced=0 / bluray_compat=0 / constrained_intra=0 / bframes=3 / b_pyramid=2 / b_adapt=2 / b_bias=0 / direct=3 / weightb=1 / open_gop=0 / weightp=2 / keyint=600 / keyint_min=60 / scenecut=40 / intra_refresh=0 / rc_lookahead=50 / rc=2pass / mbtree=1 / bitrate=20000 / ratetol=1.0 / qcomp=0.80 / qpmin=0 / qpmax=69 / qpstep=4 / cplxblur=20.0 / qblur=0.5 / vbv_maxrate=50000 / vbv_bufsize=50000 / nal_hrd=none / filler=0 / ip_ratio=1.10 / aq=1:0.50
    Язык : English
    Default : Да
    Forced : Нет
    Аудио #1
    Идентификатор : 2
    Формат : AC-3
    Формат/Информация : Audio Coding 3
    Расширение режима : CM (complete main)
    Параметр Endianness формата : Big
    Режим смешивания : Header stripping
    Идентификатор кодека : A_AC3
    Продолжительность : 2 ч. 23 м.
    Вид битрейта : Постоянный
    Битрейт : 640 Кбит/сек
    Каналы : 6 каналов
    Расположение каналов : Front: L C R, Side: L R, LFE
    Частота : 48,0 КГц
    Частота кадров : 31,250 кадров/сек (1536 spf)
    Битовая глубина : 16 бит
    Метод сжатия : С потерями
    Размер потока : 656 Мбайт (2%)
    Заголовок : Дубляж, Custom
    Язык : Russian
    Default : Да
    Forced : Нет
    Аудио #2
    Идентификатор : 3
    Формат : AC-3
    Формат/Информация : Audio Coding 3
    Расширение режима : CM (complete main)
    Параметр Endianness формата : Big
    Режим смешивания : Header stripping
    Идентификатор кодека : A_AC3
    Продолжительность : 2 ч. 23 м.
    Вид битрейта : Постоянный
    Битрейт : 640 Кбит/сек
    Каналы : 6 каналов
    Расположение каналов : Front: L C R, Side: L R, LFE
    Частота : 48,0 КГц
    Частота кадров : 31,250 кадров/сек (1536 spf)
    Битовая глубина : 16 бит
    Метод сжатия : С потерями
    Размер потока : 656 Мбайт (2%)
    Заголовок : Дубляж, Blu-ray
    Язык : Russian
    Default : Нет
    Forced : Нет
    Аудио #3
    Идентификатор : 4
    Формат : AC-3
    Формат/Информация : Audio Coding 3
    Расширение режима : CM (complete main)
    Параметр Endianness формата : Big
    Режим смешивания : Header stripping
    Идентификатор кодека : A_AC3
    Продолжительность : 2 ч. 23 м.
    Вид битрейта : Постоянный
    Битрейт : 448 Кбит/сек
    Каналы : 6 каналов
    Расположение каналов : Front: L C R, Side: L R, LFE
    Частота : 48,0 КГц
    Частота кадров : 31,250 кадров/сек (1536 spf)
    Битовая глубина : 16 бит
    Метод сжатия : С потерями
    Размер потока : 459 Мбайт (2%)
    Заголовок : Многоголосый закадровый, R5
    Язык : Russian
    Default : Нет
    Forced : Нет
    Аудио #4
    Идентификатор : 5
    Формат : AC-3
    Формат/Информация : Audio Coding 3
    Расширение режима : CM (complete main)
    Параметр Endianness формата : Big
    Режим смешивания : Header stripping
    Идентификатор кодека : A_AC3
    Продолжительность : 2 ч. 23 м.
    Вид битрейта : Постоянный
    Битрейт : 384 Кбит/сек
    Каналы : 6 каналов
    Расположение каналов : Front: L C R, Side: L R, LFE
    Частота : 48,0 КГц
    Частота кадров : 31,250 кадров/сек (1536 spf)
    Битовая глубина : 16 бит
    Метод сжатия : С потерями
    Размер потока : 393 Мбайт (1%)
    Заголовок : Двухголосый закадровый, Парус-Видео
    Язык : Russian
    Default : Нет
    Forced : Нет
    Аудио #5
    Идентификатор : 6
    Формат : AC-3
    Формат/Информация : Audio Coding 3
    Расширение режима : CM (complete main)
    Параметр Endianness формата : Big
    Режим смешивания : Header stripping
    Идентификатор кодека : A_AC3
    Продолжительность : 2 ч. 23 м.
    Вид битрейта : Постоянный
    Битрейт : 640 Кбит/сек
    Каналы : 6 каналов
    Расположение каналов : Front: L C R, Side: L R, LFE
    Частота : 48,0 КГц
    Частота кадров : 31,250 кадров/сек (1536 spf)
    Битовая глубина : 16 бит
    Метод сжатия : С потерями
    Размер потока : 656 Мбайт (2%)
    Заголовок : Двухголосый закадровый, П. Гланц и И. Королёва
    Язык : Russian
    Default : Нет
    Forced : Нет
    Аудио #6
    Идентификатор : 7
    Формат : AC-3
    Формат/Информация : Audio Coding 3
    Расширение режима : CM (complete main)
    Параметр Endianness формата : Big
    Режим смешивания : Header stripping
    Идентификатор кодека : A_AC3
    Продолжительность : 2 ч. 23 м.
    Вид битрейта : Постоянный
    Битрейт : 640 Кбит/сек
    Каналы : 6 каналов
    Расположение каналов : Front: L C R, Side: L R, LFE
    Частота : 48,0 КГц
    Частота кадров : 31,250 кадров/сек (1536 spf)
    Битовая глубина : 16 бит
    Метод сжатия : С потерями
    Размер потока : 656 Мбайт (2%)
    Заголовок : Одноголосый закадровый, А. Гаврилов
    Язык : Russian
    Default : Нет
    Forced : Нет
    Аудио #7
    Идентификатор : 8
    Формат : AC-3
    Формат/Информация : Audio Coding 3
    Расширение режима : CM (complete main)
    Параметр Endianness формата : Big
    Режим смешивания : Header stripping
    Идентификатор кодека : A_AC3
    Продолжительность : 2 ч. 23 м.
    Вид битрейта : Постоянный
    Битрейт : 640 Кбит/сек
    Каналы : 6 каналов
    Расположение каналов : Front: L C R, Side: L R, LFE
    Частота : 48,0 КГц
    Частота кадров : 31,250 кадров/сек (1536 spf)
    Битовая глубина : 16 бит
    Метод сжатия : С потерями
    Размер потока : 656 Мбайт (2%)
    Заголовок : Одноголосый закадровый, Ю.Сербин
    Язык : Russian
    Default : Нет
    Forced : Нет
    Аудио #8
    Идентификатор : 9
    Формат : AC-3
    Формат/Информация : Audio Coding 3
    Расширение режима : CM (complete main)
    Параметр Endianness формата : Big
    Режим смешивания : Header stripping
    Идентификатор кодека : A_AC3
    Продолжительность : 2 ч. 23 м.
    Вид битрейта : Постоянный
    Битрейт : 640 Кбит/сек
    Каналы : 6 каналов
    Расположение каналов : Front: L C R, Side: L R, LFE
    Частота : 48,0 КГц
    Частота кадров : 31,250 кадров/сек (1536 spf)
    Битовая глубина : 16 бит
    Метод сжатия : С потерями
    Размер потока : 656 Мбайт (2%)
    Заголовок : Одноголосый закадровый, Ю. Живов
    Язык : Russian
    Default : Нет
    Forced : Нет
    Аудио #9
    Идентификатор : 10
    Формат : AC-3
    Формат/Информация : Audio Coding 3
    Расширение режима : CM (complete main)
    Параметр Endianness формата : Big
    Режим смешивания : Header stripping
    Идентификатор кодека : A_AC3
    Продолжительность : 2 ч. 23 м.
    Вид битрейта : Постоянный
    Битрейт : 224 Кбит/сек
    Каналы : 2 канала
    Расположение каналов : Front: L R
    Частота : 48,0 КГц
    Частота кадров : 31,250 кадров/сек (1536 spf)
    Битовая глубина : 16 бит
    Метод сжатия : С потерями
    Размер потока : 230 Мбайт (1%)
    Заголовок : Одноголосый закадровый, А.Карповский
    Язык : Russian
    Default : Нет
    Forced : Нет
    Аудио #10
    Идентификатор : 11
    Формат : AC-3
    Формат/Информация : Audio Coding 3
    Расширение режима : CM (complete main)
    Параметр Endianness формата : Big
    Режим смешивания : Header stripping
    Идентификатор кодека : A_AC3
    Продолжительность : 2 ч. 23 м.
    Вид битрейта : Постоянный
    Битрейт : 192 Кбит/сек
    Каналы : 2 канала
    Расположение каналов : Front: L R
    Частота : 48,0 КГц
    Частота кадров : 31,250 кадров/сек (1536 spf)
    Битовая глубина : 16 бит
    Метод сжатия : С потерями
    Размер потока : 197 Мбайт (1%)
    Заголовок : Дубляж, Blu-ray
    Язык : Ukrainian
    Default : Нет
    Forced : Нет
    Аудио #11
    Идентификатор : 12
    Формат : AC-3
    Формат/Информация : Audio Coding 3
    Расширение режима : CM (complete main)
    Параметр Endianness формата : Big
    Режим смешивания : Header stripping
    Идентификатор кодека : A_AC3
    Продолжительность : 2 ч. 23 м.
    Вид битрейта : Постоянный
    Битрейт : 640 Кбит/сек
    Каналы : 6 каналов
    Расположение каналов : Front: L C R, Side: L R, LFE
    Частота : 48,0 КГц
    Частота кадров : 31,250 кадров/сек (1536 spf)
    Битовая глубина : 16 бит
    Метод сжатия : С потерями
    Размер потока : 656 Мбайт (2%)
    Заголовок : Оригинал
    Язык : English
    Default : Нет
    Forced : Нет
    Текст #1
    Идентификатор : 13
    Формат : UTF-8
    Идентификатор кодека : S_TEXT/UTF8
    Идентификатор кодека/Информация : UTF-8 Plain Text
    Заголовок : Forced
    Язык : Russian
    Default : Да
    Forced : Нет
    Текст #2
    Идентификатор : 14
    Формат : UTF-8
    Идентификатор кодека : S_TEXT/UTF8
    Идентификатор кодека/Информация : UTF-8 Plain Text
    Язык : Russian
    Default : Нет
    Forced : Нет
    Текст #3
    Идентификатор : 15
    Формат : UTF-8
    Идентификатор кодека : S_TEXT/UTF8
    Идентификатор кодека/Информация : UTF-8 Plain Text
    Язык : Russian
    Default : Нет
    Forced : Нет
    Текст #4
    Идентификатор : 16
    Формат : UTF-8
    Идентификатор кодека : S_TEXT/UTF8
    Идентификатор кодека/Информация : UTF-8 Plain Text
    Язык : English
    Default : Нет
    Forced : Нет
    Меню
    00:00:00.000 : en:Chapter 1
    00:08:51.278 : en:Chapter 2
    00:16:05.547 : en:Chapter 3
    00:27:16.342 : en:Chapter 4
    00:35:59.322 : en:Chapter 5
    00:41:02.960 : en:Chapter 6
    00:48:19.938 : en:Chapter 7
    00:54:01.277 : en:Chapter 8
    01:04:05.675 : en:Chapter 9
    01:15:56.801 : en:Chapter 10
    01:21:21.417 : en:Chapter 11
    01:35:00.152 : en:Chapter 12
    01:40:00.743 : en:Chapter 13
    01:48:15.613 : en:Chapter 14
    02:02:02.189 : en:Chapter 15
    02:13:09.647 : en:Chapter 16
    02:23:14.877 : en:Chapter 17

    Пираты Карибского моря: Сундук мертвеца / Pirates of the Caribbean: Dead Man's Chest (2006)

    Пираты Карибского моря: Сундук мертвеца / Pirates of the Caribbean: Dead Man's Chest (2006)
    Год выпуска: 2006 г.
    Жанр: Фэнтези, боевик, комедия, приключения
    Страна: США
    Режиссер: Гор Вербински
    Продолжительность: 02:30:41
    Перевод: Дубляж, двухголосый закадровый, авторский
    В ролях: Джонни Депп, Орландо Блум, Кира Найтли, Джек Девенпорт, Билл Найи, Джонатан Прайс, Стеллан Скарсгард, Ли Аренберг, МакКензи Крук, Том Холландер, Кевин МакНэлли, Дэвид Бэйли, Наоми Харрис, Мартин Клебба, Дэвид Скофилд, Алекс Нортон, Лорен Мехер, Ней Эдамсон, Джимми Руссунис, Морэй Тредуэлл, Сан Шелла, Джим Коуди Уильямс, Майкл Миранда, Люк де Вулфсон, Деррик О’Коннор
    Описание: Вновь оказавшись в ирреальном мире, лихой капитан Джек Воробей неожиданно узнает, что является должником легендарного капитана «Летучего Голландца» Дэйви Джонса. Джек должен в кратчайшие сроки решить эту проблему, иначе ему грозит вечное проклятие и рабское существование после смерти. Вдобавок ко всему, срывается свадьба Уилла Тернера и Элизабет Суонн, которые вынуждены составить Джеку компанию в его злоключениях…

    Формат видео: MKV
    Качество видео: BDRip 1080p | 60fps
    Видео кодек: H.264
    Аудио кодек: AC3
    Видео: 1920*800, 20,0 Мбит/сек, 59,940 кадров/сек
    Аудио 1: Русский, AC3, 6 ch, 640 Кбит/с Дубляж, Custom
    Аудио 2: Русский, AC3, 6 ch, 640 Кбит/с Дубляж, Blu-ray
    Аудио 3: Русский, AC3, 6 ch, 448 Кбит/с Двухголосый закадровый, Tycoon
    Аудио 4: Русский, AC3, 6 ch, 640 Кбит/с Двухголосый закадровый, П. Гланц и И. Королёва
    Аудио 5: Русский, AC3, 6 ch, 640 Кбит/с Одноголосый закадровый, А. Гаврилов
    Аудио 6: Русский, AC3, 6 ch, 640 Кбит/с Одноголосый закадровый, Ю.Сербин
    Аудио 7: Русский, AC3, 6 ch, 640 Кбит/с Одноголосый закадровый, В. Королёв
    Аудио 8: Украинский, АС3, 6 ch, 640 Кбит/с Дубляж, Blu-Ray
    Аудио 9: Английский, AC3, 6 ch, 640 Кбит/с Оригинал
    Субтитры: Русские, английские
    Главы: Есть

    Отчёт MediaInfo

    Общее
    Уникальный идентификатор : 181406373511430673534235148157370739265 (0x887998C056608EF8833B092108E3AA41)
    Полное имя : D:\Movie\Пираты Карибского моря. Коллекция\2 Пираты Карибского моря Сундук мертвеца (2006).mkv
    Формат : Matroska
    Версия формата : Version 2
    Размер файла : 26,8 Гбайт
    Продолжительность : 2 ч. 30 м.
    Общий поток : 25,5 Мбит/сек
    Название фильма : Сундук мертвеца
    Дата кодирования : UTC 2021-09-19 15:21:54
    Программа кодирования : mkvmerge v5.8.0 ('No Sleep / Pillow') built on Sep 2 2012 15:37:04
    Библиотека кодирования : libebml v1.2.3 + libmatroska v1.3.0
    Attachments : Poster
    Видео
    Идентификатор : 1
    Формат : AVC
    Формат/Информация : Advanced Video Codec
    Профиль формата : High@L4.1
    Параметр CABAC формата : Да
    Параметр ReFrames формата : 5 кадров
    Режим смешивания : Header stripping
    Идентификатор кодека : V_MPEG4/ISO/AVC
    Продолжительность : 2 ч. 30 м.
    Битрейт : 20,0 Мбит/сек
    Ширина : 1920 пикселей
    Высота : 800 пикселей
    Соотношение сторон : 2,40:1
    Режим частоты кадров : Постоянный
    Частота кадров : 59,940 (60000/1001) кадров/сек
    Цветовое пространство : YUV
    Субдискретизация насыщенности : 4:2:0
    Битовая глубина : 8 бит
    Тип развёртки : Прогрессивная
    Бит/(Пиксели*Кадры) : 0.217
    Размер потока : 20,5 Гбайт (76%)
    Библиотека кодирования : x264 core 146 r2538 121396c
    Настройки программы : cabac=1 / ref=5 / deblock=1:0:0 / analyse=0x3:0x113 / me=umh / subme=8 / psy=1 / psy_rd=1.00:0.25 / mixed_ref=1 / me_range=32 / chroma_me=1 / trellis=1 / 8x8dct=1 / cqm=0 / deadzone=6,6 / fast_pskip=1 / chroma_qp_offset=-4 / threads=12 / lookahead_threads=3 / sliced_threads=0 / nr=0 / decimate=0 / interlaced=0 / bluray_compat=0 / constrained_intra=0 / bframes=3 / b_pyramid=2 / b_adapt=2 / b_bias=0 / direct=3 / weightb=1 / open_gop=0 / weightp=2 / keyint=600 / keyint_min=60 / scenecut=40 / intra_refresh=0 / rc_lookahead=50 / rc=2pass / mbtree=1 / bitrate=20000 / ratetol=1.0 / qcomp=0.80 / qpmin=0 / qpmax=69 / qpstep=4 / cplxblur=20.0 / qblur=0.5 / vbv_maxrate=50000 / vbv_bufsize=50000 / nal_hrd=none / filler=0 / ip_ratio=1.10 / aq=1:0.50
    Язык : English
    Default : Да
    Forced : Нет
    Аудио #1
    Идентификатор : 2
    Формат : AC-3
    Формат/Информация : Audio Coding 3
    Расширение режима : CM (complete main)
    Параметр Endianness формата : Big
    Режим смешивания : Header stripping
    Идентификатор кодека : A_AC3
    Продолжительность : 2 ч. 30 м.
    Вид битрейта : Постоянный
    Битрейт : 640 Кбит/сек
    Каналы : 6 каналов
    Расположение каналов : Front: L C R, Side: L R, LFE
    Частота : 48,0 КГц
    Частота кадров : 31,250 кадров/сек (1536 spf)
    Битовая глубина : 16 бит
    Метод сжатия : С потерями
    Размер потока : 690 Мбайт (3%)
    Заголовок : Дубляж, Custom
    Язык : Russian
    Default : Да
    Forced : Нет
    Аудио #2
    Идентификатор : 3
    Формат : AC-3
    Формат/Информация : Audio Coding 3
    Расширение режима : CM (complete main)
    Параметр Endianness формата : Big
    Режим смешивания : Header stripping
    Идентификатор кодека : A_AC3
    Продолжительность : 2 ч. 30 м.
    Вид битрейта : Постоянный
    Битрейт : 640 Кбит/сек
    Каналы : 6 каналов
    Расположение каналов : Front: L C R, Side: L R, LFE
    Частота : 48,0 КГц
    Частота кадров : 31,250 кадров/сек (1536 spf)
    Битовая глубина : 16 бит
    Метод сжатия : С потерями
    Размер потока : 690 Мбайт (3%)
    Заголовок : Дубляж, Blu-ray
    Язык : Russian
    Default : Нет
    Forced : Нет
    Аудио #3
    Идентификатор : 4
    Формат : AC-3
    Формат/Информация : Audio Coding 3
    Расширение режима : CM (complete main)
    Параметр Endianness формата : Big
    Режим смешивания : Header stripping
    Идентификатор кодека : A_AC3
    Продолжительность : 2 ч. 30 м.
    Вид битрейта : Постоянный
    Битрейт : 448 Кбит/сек
    Каналы : 6 каналов
    Расположение каналов : Front: L C R, Side: L R, LFE
    Частота : 48,0 КГц
    Частота кадров : 31,250 кадров/сек (1536 spf)
    Битовая глубина : 16 бит
    Метод сжатия : С потерями
    Размер потока : 483 Мбайт (2%)
    Заголовок : Двухголосый закадровый, Tycoon
    Язык : Russian
    Default : Нет
    Forced : Нет
    Аудио #4
    Идентификатор : 5
    Формат : AC-3
    Формат/Информация : Audio Coding 3
    Расширение режима : CM (complete main)
    Параметр Endianness формата : Big
    Режим смешивания : Header stripping
    Идентификатор кодека : A_AC3
    Продолжительность : 2 ч. 30 м.
    Вид битрейта : Постоянный
    Битрейт : 640 Кбит/сек
    Каналы : 6 каналов
    Расположение каналов : Front: L C R, Side: L R, LFE
    Частота : 48,0 КГц
    Частота кадров : 31,250 кадров/сек (1536 spf)
    Битовая глубина : 16 бит
    Метод сжатия : С потерями
    Размер потока : 690 Мбайт (3%)
    Заголовок : Двухголосый закадровый, П. Гланц и И. Королёва
    Язык : Russian
    Default : Нет
    Forced : Нет
    Аудио #5
    Идентификатор : 6
    Формат : AC-3
    Формат/Информация : Audio Coding 3
    Расширение режима : CM (complete main)
    Параметр Endianness формата : Big
    Режим смешивания : Header stripping
    Идентификатор кодека : A_AC3
    Продолжительность : 2 ч. 30 м.
    Вид битрейта : Постоянный
    Битрейт : 640 Кбит/сек
    Каналы : 6 каналов
    Расположение каналов : Front: L C R, Side: L R, LFE
    Частота : 48,0 КГц
    Частота кадров : 31,250 кадров/сек (1536 spf)
    Битовая глубина : 16 бит
    Метод сжатия : С потерями
    Размер потока : 690 Мбайт (3%)
    Заголовок : Одноголосый закадровый, А. Гаврилов
    Язык : Russian
    Default : Нет
    Forced : Нет
    Аудио #6
    Идентификатор : 7
    Формат : AC-3
    Формат/Информация : Audio Coding 3
    Расширение режима : CM (complete main)
    Параметр Endianness формата : Big
    Режим смешивания : Header stripping
    Идентификатор кодека : A_AC3
    Продолжительность : 2 ч. 30 м.
    Вид битрейта : Постоянный
    Битрейт : 640 Кбит/сек
    Каналы : 6 каналов
    Расположение каналов : Front: L C R, Side: L R, LFE
    Частота : 48,0 КГц
    Частота кадров : 31,250 кадров/сек (1536 spf)
    Битовая глубина : 16 бит
    Метод сжатия : С потерями
    Размер потока : 690 Мбайт (3%)
    Заголовок : Одноголосый закадровый, Ю.Сербин
    Язык : Russian
    Default : Нет
    Forced : Нет
    Аудио #7
    Идентификатор : 8
    Формат : AC-3
    Формат/Информация : Audio Coding 3
    Расширение режима : CM (complete main)
    Параметр Endianness формата : Big
    Режим смешивания : Header stripping
    Идентификатор кодека : A_AC3
    Продолжительность : 2 ч. 30 м.
    Вид битрейта : Постоянный
    Битрейт : 640 Кбит/сек
    Каналы : 6 каналов
    Расположение каналов : Front: L C R, Side: L R, LFE
    Частота : 48,0 КГц
    Частота кадров : 31,250 кадров/сек (1536 spf)
    Битовая глубина : 16 бит
    Метод сжатия : С потерями
    Размер потока : 690 Мбайт (3%)
    Заголовок : Одноголосый закадровый, В. Королёв
    Язык : Russian
    Default : Нет
    Forced : Нет
    Аудио #8
    Идентификатор : 9
    Формат : AC-3
    Формат/Информация : Audio Coding 3
    Расширение режима : CM (complete main)
    Параметр Endianness формата : Big
    Режим смешивания : Header stripping
    Идентификатор кодека : A_AC3
    Продолжительность : 2 ч. 30 м.
    Вид битрейта : Постоянный
    Битрейт : 640 Кбит/сек
    Каналы : 6 каналов
    Расположение каналов : Front: L C R, Side: L R, LFE
    Частота : 48,0 КГц
    Частота кадров : 31,250 кадров/сек (1536 spf)
    Битовая глубина : 16 бит
    Метод сжатия : С потерями
    Размер потока : 690 Мбайт (3%)
    Заголовок : Дубляж, Blu-Ray
    Язык : Ukrainian
    Default : Нет
    Forced : Нет
    Аудио #9
    Идентификатор : 10
    Формат : AC-3
    Формат/Информация : Audio Coding 3
    Расширение режима : CM (complete main)
    Параметр Endianness формата : Big
    Режим смешивания : Header stripping
    Идентификатор кодека : A_AC3
    Продолжительность : 2 ч. 30 м.
    Вид битрейта : Постоянный
    Битрейт : 640 Кбит/сек
    Каналы : 6 каналов
    Расположение каналов : Front: L C R, Side: L R, LFE
    Частота : 48,0 КГц
    Частота кадров : 31,250 кадров/сек (1536 spf)
    Битовая глубина : 16 бит
    Метод сжатия : С потерями
    Размер потока : 690 Мбайт (3%)
    Заголовок : Оригинал
    Язык : English
    Default : Нет
    Forced : Нет
    Текст #1
    Идентификатор : 11
    Формат : UTF-8
    Идентификатор кодека : S_TEXT/UTF8
    Идентификатор кодека/Информация : UTF-8 Plain Text
    Заголовок : Forced
    Язык : Russian
    Default : Да
    Forced : Нет
    Текст #2
    Идентификатор : 12
    Формат : UTF-8
    Идентификатор кодека : S_TEXT/UTF8
    Идентификатор кодека/Информация : UTF-8 Plain Text
    Заголовок : Full
    Язык : Russian
    Default : Нет
    Forced : Нет
    Текст #3
    Идентификатор : 13
    Формат : UTF-8
    Идентификатор кодека : S_TEXT/UTF8
    Идентификатор кодека/Информация : UTF-8 Plain Text
    Заголовок : Full
    Язык : English
    Default : Нет
    Forced : Нет
    Меню
    00:00:00.000 : en:Chapter 1
    00:04:18.924 : en:Chapter 2
    00:09:53.009 : en:Chapter 3
    00:12:13.441 : en:Chapter 4
    00:19:09.064 : en:Chapter 5
    00:23:53.471 : en:Chapter 6
    00:30:15.480 : en:Chapter 7
    00:35:29.418 : en:Chapter 8
    00:40:32.929 : en:Chapter 9
    00:46:28.034 : en:Chapter 10
    00:50:25.563 : en:Chapter 11
    00:56:18.625 : en:Chapter 12
    00:59:52.380 : en:Chapter 13
    01:05:45.189 : en:Chapter 14
    01:11:55.853 : en:Chapter 15
    01:17:04.327 : en:Chapter 16
    01:22:10.256 : en:Chapter 17
    01:30:36.639 : en:Chapter 18
    01:34:38.171 : en:Chapter 19
    01:39:21.828 : en:Chapter 20
    01:44:52.408 : en:Chapter 21
    01:49:14.712 : en:Chapter 22
    01:54:55.805 : en:Chapter 23
    01:59:36.042 : en:Chapter 24
    02:04:59.908 : en:Chapter 25
    02:10:27.194 : en:Chapter 26
    02:16:20.629 : en:Chapter 27
    02:21:04.789 : en:Chapter 28
    02:30:39.030 : en:Chapter 29

    Пираты Карибского моря: На краю Света / Pirates of the Caribbean: At World's End (2007)

    Пираты Карибского моря: На краю Света / Pirates of the Caribbean: At World's End (2007)
    Год выпуска: 2007 г.
    Жанр: Фэнтези, боевик, приключения
    Страна: США
    Режиссер: Гор Вербински
    Продолжительность: 02:48:30
    Перевод: Дубляж, двухголосый закадровый, авторский
    В ролях:Джонни Депп, Орландо Блум, Кира Найтли, Юнь-Фат Чоу, Джеффри Раш, Стеллан Скарсгард
    Описание: Новые приключения Джека Воробья и его друзей Уилла Тернера и Элизабет Суонн. На этот раз Уиллу и Элизабет придется объединиться с самим Капитаном Барбоссой для того, чтобы отправиться на край света и спасти своего друга — Джека. Ситуация осложняется тем, что Элизабет попадает к сингапурским пиратам…

    Формат видео: MKV
    Качество видео: BDRip 1080p | 60fps
    Видео кодек: H.264
    Аудио кодек: AC3
    Видео: 1920*800, 20,0 Мбит/сек, 59,940 кадров/сек
    Аудио 1: Русский, AC3, 6 ch, 640 Кбит/с Дубляж, Custom
    Аудио 2: Русский, AC3, 6 ch, 640 Кбит/с Дубляж, Blu-ray
    Аудио 3: Русский, AC3, 6 ch, 640 Кбит/с Двухголосый закадровый, П.Гланц и И.Королева
    Аудио 4: Русский, АС3, 6 ch, 640 Кбит/с Одноголосый закадровый, А. Гаврилов
    Аудио 5: Русский, АС3, 6 ch, 640 Кбит/с Одноголосый закадровый, Ю.Сербин
    Аудио 6: Русский, АС3, 6 ch, 640 Кбит/с Одноголосый закадровый, В.Королев
    Аудио 7: Украийский, AC3, 6 ch, 640 Кбит/с Дубляж, Blu-Ray
    Аудио 8: Английский, AC3, 6 ch, 640 Кбит/с Оригинал
    Субтитры: Русские, английские
    Главы: Есть

    Отчёт MediaInfo

    Общее
    Уникальный идентификатор : 171774114195687052157737457682380693896 (0x813A7DB37CB6247D91FB648E03032188)
    Полное имя : D:\Movie\Пираты Карибского моря. Коллекция\3 Пираты Карибского моря На краю Света (2007).mkv
    Формат : Matroska
    Версия формата : Version 2
    Размер файла : 29,5 Гбайт
    Продолжительность : 2 ч. 48 м.
    Общий поток : 25,1 Мбит/сек
    Название фильма : На краю Света
    Дата кодирования : UTC 2021-09-20 08:40:31
    Программа кодирования : mkvmerge v5.8.0 ('No Sleep / Pillow') built on Sep 2 2012 15:37:04
    Библиотека кодирования : libebml v1.2.3 + libmatroska v1.3.0
    Attachments : Poster
    Видео
    Идентификатор : 1
    Формат : AVC
    Формат/Информация : Advanced Video Codec
    Профиль формата : High@L4.1
    Параметр CABAC формата : Да
    Параметр ReFrames формата : 5 кадров
    Режим смешивания : Header stripping
    Идентификатор кодека : V_MPEG4/ISO/AVC
    Продолжительность : 2 ч. 48 м.
    Битрейт : 20,0 Мбит/сек
    Ширина : 1920 пикселей
    Высота : 800 пикселей
    Соотношение сторон : 2,40:1
    Режим частоты кадров : Постоянный
    Частота кадров : 59,940 (60000/1001) кадров/сек
    Цветовое пространство : YUV
    Субдискретизация насыщенности : 4:2:0
    Битовая глубина : 8 бит
    Тип развёртки : Прогрессивная
    Бит/(Пиксели*Кадры) : 0.217
    Размер потока : 22,9 Гбайт (78%)
    Библиотека кодирования : x264 core 146 r2538 121396c
    Настройки программы : cabac=1 / ref=5 / deblock=1:0:0 / analyse=0x3:0x113 / me=umh / subme=8 / psy=1 / psy_rd=1.00:0.25 / mixed_ref=1 / me_range=32 / chroma_me=1 / trellis=1 / 8x8dct=1 / cqm=0 / deadzone=6,6 / fast_pskip=1 / chroma_qp_offset=-4 / threads=12 / lookahead_threads=3 / sliced_threads=0 / nr=0 / decimate=0 / interlaced=0 / bluray_compat=0 / constrained_intra=0 / bframes=3 / b_pyramid=2 / b_adapt=2 / b_bias=0 / direct=3 / weightb=1 / open_gop=0 / weightp=2 / keyint=600 / keyint_min=60 / scenecut=40 / intra_refresh=0 / rc_lookahead=50 / rc=2pass / mbtree=1 / bitrate=20000 / ratetol=1.0 / qcomp=0.80 / qpmin=0 / qpmax=69 / qpstep=4 / cplxblur=20.0 / qblur=0.5 / vbv_maxrate=50000 / vbv_bufsize=50000 / nal_hrd=none / filler=0 / ip_ratio=1.10 / aq=1:0.50
    Язык : English
    Default : Да
    Forced : Нет
    Аудио #1
    Идентификатор : 2
    Формат : AC-3
    Формат/Информация : Audio Coding 3
    Расширение режима : CM (complete main)
    Параметр Endianness формата : Big
    Режим смешивания : Header stripping
    Идентификатор кодека : A_AC3
    Продолжительность : 2 ч. 48 м.
    Вид битрейта : Постоянный
    Битрейт : 640 Кбит/сек
    Каналы : 6 каналов
    Расположение каналов : Front: L C R, Side: L R, LFE
    Частота : 48,0 КГц
    Частота кадров : 31,250 кадров/сек (1536 spf)
    Битовая глубина : 16 бит
    Метод сжатия : С потерями
    Размер потока : 771 Мбайт (3%)
    Заголовок : Дубляж, Custom
    Язык : Russian
    Default : Да
    Forced : Нет
    Аудио #2
    Идентификатор : 3
    Формат : AC-3
    Формат/Информация : Audio Coding 3
    Расширение режима : CM (complete main)
    Параметр Endianness формата : Big
    Режим смешивания : Header stripping
    Идентификатор кодека : A_AC3
    Продолжительность : 2 ч. 48 м.
    Вид битрейта : Постоянный
    Битрейт : 640 Кбит/сек
    Каналы : 6 каналов
    Расположение каналов : Front: L C R, Side: L R, LFE
    Частота : 48,0 КГц
    Частота кадров : 31,250 кадров/сек (1536 spf)
    Битовая глубина : 16 бит
    Метод сжатия : С потерями
    Размер потока : 771 Мбайт (3%)
    Заголовок : Дубляж, Blu-ray
    Язык : Russian
    Default : Нет
    Forced : Нет
    Аудио #3
    Идентификатор : 4
    Формат : AC-3
    Формат/Информация : Audio Coding 3
    Расширение режима : CM (complete main)
    Параметр Endianness формата : Big
    Режим смешивания : Header stripping
    Идентификатор кодека : A_AC3
    Продолжительность : 2 ч. 48 м.
    Вид битрейта : Постоянный
    Битрейт : 640 Кбит/сек
    Каналы : 6 каналов
    Расположение каналов : Front: L C R, Side: L R, LFE
    Частота : 48,0 КГц
    Частота кадров : 31,250 кадров/сек (1536 spf)
    Битовая глубина : 16 бит
    Метод сжатия : С потерями
    Размер потока : 771 Мбайт (3%)
    Заголовок : Двухголосый закадровый, П.Гланц и И.Королева
    Язык : Russian
    Default : Нет
    Forced : Нет
    Аудио #4
    Идентификатор : 5
    Формат : AC-3
    Формат/Информация : Audio Coding 3
    Расширение режима : CM (complete main)
    Параметр Endianness формата : Big
    Режим смешивания : Header stripping
    Идентификатор кодека : A_AC3
    Продолжительность : 2 ч. 48 м.
    Вид битрейта : Постоянный
    Битрейт : 640 Кбит/сек
    Каналы : 6 каналов
    Расположение каналов : Front: L C R, Side: L R, LFE
    Частота : 48,0 КГц
    Частота кадров : 31,250 кадров/сек (1536 spf)
    Битовая глубина : 16 бит
    Метод сжатия : С потерями
    Размер потока : 771 Мбайт (3%)
    Заголовок : Одноголосый закадровый, А. Гаврилов
    Язык : Russian
    Default : Нет
    Forced : Нет
    Аудио #5
    Идентификатор : 6
    Формат : AC-3
    Формат/Информация : Audio Coding 3
    Расширение режима : CM (complete main)
    Параметр Endianness формата : Big
    Режим смешивания : Header stripping
    Идентификатор кодека : A_AC3
    Продолжительность : 2 ч. 48 м.
    Вид битрейта : Постоянный
    Битрейт : 640 Кбит/сек
    Каналы : 6 каналов
    Расположение каналов : Front: L C R, Side: L R, LFE
    Частота : 48,0 КГц
    Частота кадров : 31,250 кадров/сек (1536 spf)
    Битовая глубина : 16 бит
    Метод сжатия : С потерями
    Размер потока : 771 Мбайт (3%)
    Заголовок : Одноголосый закадровый, Ю.Сербин
    Язык : Russian
    Default : Нет
    Forced : Нет
    Аудио #6
    Идентификатор : 7
    Формат : AC-3
    Формат/Информация : Audio Coding 3
    Расширение режима : CM (complete main)
    Параметр Endianness формата : Big
    Режим смешивания : Header stripping
    Идентификатор кодека : A_AC3
    Продолжительность : 2 ч. 48 м.
    Вид битрейта : Постоянный
    Битрейт : 640 Кбит/сек
    Каналы : 6 каналов
    Расположение каналов : Front: L C R, Side: L R, LFE
    Частота : 48,0 КГц
    Частота кадров : 31,250 кадров/сек (1536 spf)
    Битовая глубина : 16 бит
    Метод сжатия : С потерями
    Размер потока : 771 Мбайт (3%)
    Заголовок : Одноголосый закадровый, В.Королев
    Язык : Russian
    Default : Нет
    Forced : Нет
    Аудио #7
    Идентификатор : 8
    Формат : AC-3
    Формат/Информация : Audio Coding 3
    Расширение режима : CM (complete main)
    Параметр Endianness формата : Big
    Режим смешивания : Header stripping
    Идентификатор кодека : A_AC3
    Продолжительность : 2 ч. 48 м.
    Вид битрейта : Постоянный
    Битрейт : 640 Кбит/сек
    Каналы : 6 каналов
    Расположение каналов : Front: L C R, Side: L R, LFE
    Частота : 48,0 КГц
    Частота кадров : 31,250 кадров/сек (1536 spf)
    Битовая глубина : 16 бит
    Метод сжатия : С потерями
    Размер потока : 771 Мбайт (3%)
    Заголовок : Дубляж, Blu-ray
    Язык : Ukrainian
    Default : Нет
    Forced : Нет
    Аудио #8
    Идентификатор : 9
    Формат : AC-3
    Формат/Информация : Audio Coding 3
    Расширение режима : CM (complete main)
    Параметр Endianness формата : Big
    Режим смешивания : Header stripping
    Идентификатор кодека : A_AC3
    Продолжительность : 2 ч. 48 м.
    Вид битрейта : Постоянный
    Битрейт : 640 Кбит/сек
    Каналы : 6 каналов
    Расположение каналов : Front: L C R, Side: L R, LFE
    Частота : 48,0 КГц
    Частота кадров : 31,250 кадров/сек (1536 spf)
    Битовая глубина : 16 бит
    Метод сжатия : С потерями
    Размер потока : 771 Мбайт (3%)
    Язык : English
    Default : Нет
    Forced : Нет
    Текст #1
    Идентификатор : 10
    Формат : UTF-8
    Идентификатор кодека : S_TEXT/UTF8
    Идентификатор кодека/Информация : UTF-8 Plain Text
    Заголовок : Forced
    Язык : Russian
    Default : Да
    Forced : Нет
    Текст #2
    Идентификатор : 11
    Формат : UTF-8
    Идентификатор кодека : S_TEXT/UTF8
    Идентификатор кодека/Информация : UTF-8 Plain Text
    Язык : Russian
    Default : Нет
    Forced : Нет
    Текст #3
    Идентификатор : 12
    Формат : UTF-8
    Идентификатор кодека : S_TEXT/UTF8
    Идентификатор кодека/Информация : UTF-8 Plain Text
    Язык : English
    Default : Нет
    Forced : Нет
    Меню
    00:00:00.000 : en:Chapter 1
    00:04:33.939 : en:Chapter 2
    00:10:01.807 : en:Chapter 3
    00:19:58.278 : en:Chapter 4
    00:26:07.480 : en:Chapter 5
    00:32:47.337 : en:Chapter 6
    00:39:40.335 : en:Chapter 7
    00:46:04.760 : en:Chapter 8
    00:51:31.963 : en:Chapter 9
    00:58:03.730 : en:Chapter 10
    01:04:50.677 : en:Chapter 11
    01:12:46.819 : en:Chapter 12
    01:17:54.877 : en:Chapter 13
    01:24:46.537 : en:Chapter 14
    01:28:41.354 : en:Chapter 15
    01:33:34.149 : en:Chapter 16
    01:38:05.671 : en:Chapter 17
    01:41:52.979 : en:Chapter 18
    01:48:12.652 : en:Chapter 19
    01:53:13.286 : en:Chapter 20
    01:59:31.372 : en:Chapter 21
    02:05:52.211 : en:Chapter 22
    02:09:13.243 : en:Chapter 23
    02:13:53.524 : en:Chapter 24
    02:23:19.254 : en:Chapter 25
    02:28:15.636 : en:Chapter 26
    02:34:29.217 : en:Chapter 27
    02:38:48.558 : en:Chapter 28
    02:48:30.100 : en:Chapter 29

    Пираты Карибского моря: На странных берегах / Pirates of the Caribbean: On Stranger Tides (2011)

    Пираты Карибского моря: На странных берегах / Pirates of the Caribbean: On Stranger Tides (2011)
    Год выпуска: 2011 г.
    Жанр: Фэнтези, боевик, приключения
    Страна: США, Великобритания
    Режиссер: Роб Маршалл
    Продолжительность: 02:16:23
    Перевод: Дубляж, многоголосый закадровый, авторский
    В ролях: Джонни Депп, Пенелопа Крус, Джеффри Раш, Иэн МакШейн, Кевин МакНэлли, Стивен Грэм, Сэм Клафлин, Астрид Берже-Фрисби, Кит Ричардс, Ричард Гриффитс
    Описание: В новой истории о поисках истины, предательстве, вечной молодости и смертельной опасности капитану Джеку Воробью предстоит столкнуться с женщиной из своего прошлого Анжеликой. До самого конца не будет понятно, связывает ли их настоящая любовь, или же Анжелика искусно притворяется, чтобы вместе с Джеком добраться до таинственного источника вечной молодости.
    Она силой принуждает капитана Джека Воробья взойти на корабль «Месть Королевы Анны», которым управляет коварный злодей Черная Борода. Наш герой оказывается в ситуации, когда он не знает, чего ему бояться больше - ужасного злодея или же свою давнюю подругу.

    Формат видео: MKV
    Качество видео: BDRip 1080p | 60fps
    Видео кодек: H.264
    Аудио кодек: AC3
    Видео: 1920*800, 20,0 Мбит/сек, 59,940 кадров/сек
    Аудио 1: Русский, AC3, 6 ch, 640 Кбит/с Дубляж, Custom
    Аудио 2: Русский, AC3, 6 ch, 640 Кбит/с Дубляж, Blu-Ray
    Аудио 3: Русский, АС3, 6 ch, 640 Кбит/с Одноголосый закадровый, А.Гаврилов
    Аудио 4: Русский, АС3, 6 ch, 640 Кбит/с Одноголосый закадровый, Ю.Сербин
    Аудио 5: Украийский, AC3, 6 ch, 640 Кбит/с Дубляж, Blu-Ray
    Аудио 6: Английский, AC3, 6 ch, 640 Кбит/с Оригинал
    Субтитры: Русские, английские
    Главы: Есть

    Отчёт MediaInfo

    Общее
    Уникальный идентификатор : 222855909164822126099138644084388048479 (0xA7A87CA3CD4375DDBB3AAFFF8C94AE5F)
    Полное имя : D:\Movie\Пираты Карибского моря. Коллекция\4 Пираты Карибского моря На странных берегах (2011).mkv
    Формат : Matroska
    Версия формата : Version 2
    Размер файла : 22,7 Гбайт
    Продолжительность : 2 ч. 16 м.
    Общий поток : 23,8 Мбит/сек
    Название фильма : На странных берегах
    Дата кодирования : UTC 2021-09-21 04:54:12
    Программа кодирования : mkvmerge v5.8.0 ('No Sleep / Pillow') built on Sep 2 2012 15:37:04
    Библиотека кодирования : libebml v1.2.3 + libmatroska v1.3.0
    Attachments : Poster
    Видео
    Идентификатор : 1
    Формат : AVC
    Формат/Информация : Advanced Video Codec
    Профиль формата : High@L4.1
    Параметр CABAC формата : Да
    Параметр ReFrames формата : 5 кадров
    Режим смешивания : Header stripping
    Идентификатор кодека : V_MPEG4/ISO/AVC
    Продолжительность : 2 ч. 16 м.
    Битрейт : 20,0 Мбит/сек
    Ширина : 1920 пикселей
    Высота : 800 пикселей
    Соотношение сторон : 2,40:1
    Режим частоты кадров : Постоянный
    Частота кадров : 59,940 (60000/1001) кадров/сек
    Цветовое пространство : YUV
    Субдискретизация насыщенности : 4:2:0
    Битовая глубина : 8 бит
    Тип развёртки : Прогрессивная
    Бит/(Пиксели*Кадры) : 0.217
    Размер потока : 18,6 Гбайт (82%)
    Библиотека кодирования : x264 core 146 r2538 121396c
    Настройки программы : cabac=1 / ref=5 / deblock=1:0:0 / analyse=0x3:0x113 / me=umh / subme=8 / psy=1 / psy_rd=1.00:0.25 / mixed_ref=1 / me_range=32 / chroma_me=1 / trellis=1 / 8x8dct=1 / cqm=0 / deadzone=6,6 / fast_pskip=1 / chroma_qp_offset=-4 / threads=12 / lookahead_threads=3 / sliced_threads=0 / nr=0 / decimate=0 / interlaced=0 / bluray_compat=0 / constrained_intra=0 / bframes=3 / b_pyramid=2 / b_adapt=2 / b_bias=0 / direct=3 / weightb=1 / open_gop=0 / weightp=2 / keyint=600 / keyint_min=60 / scenecut=40 / intra_refresh=0 / rc_lookahead=50 / rc=2pass / mbtree=1 / bitrate=20000 / ratetol=1.0 / qcomp=0.80 / qpmin=0 / qpmax=69 / qpstep=4 / cplxblur=20.0 / qblur=0.5 / vbv_maxrate=50000 / vbv_bufsize=50000 / nal_hrd=none / filler=0 / ip_ratio=1.10 / aq=1:0.50
    Язык : English
    Default : Да
    Forced : Нет
    Аудио #1
    Идентификатор : 2
    Формат : AC-3
    Формат/Информация : Audio Coding 3
    Расширение режима : CM (complete main)
    Параметр Endianness формата : Big
    Режим смешивания : Header stripping
    Идентификатор кодека : A_AC3
    Продолжительность : 2 ч. 16 м.
    Вид битрейта : Постоянный
    Битрейт : 640 Кбит/сек
    Каналы : 6 каналов
    Расположение каналов : Front: L C R, Side: L R, LFE
    Частота : 48,0 КГц
    Частота кадров : 31,250 кадров/сек (1536 spf)
    Битовая глубина : 16 бит
    Метод сжатия : С потерями
    Размер потока : 624 Мбайт (3%)
    Заголовок : Дубляж, Custom
    Язык : Russian
    Default : Да
    Forced : Нет
    Аудио #2
    Идентификатор : 3
    Формат : AC-3
    Формат/Информация : Audio Coding 3
    Расширение режима : CM (complete main)
    Параметр Endianness формата : Big
    Режим смешивания : Header stripping
    Идентификатор кодека : A_AC3
    Продолжительность : 2 ч. 16 м.
    Вид битрейта : Постоянный
    Битрейт : 640 Кбит/сек
    Каналы : 6 каналов
    Расположение каналов : Front: L C R, Side: L R, LFE
    Частота : 48,0 КГц
    Частота кадров : 31,250 кадров/сек (1536 spf)
    Битовая глубина : 16 бит
    Метод сжатия : С потерями
    Размер потока : 624 Мбайт (3%)
    Заголовок : Дубляж, Blu-Ray
    Язык : Russian
    Default : Нет
    Forced : Нет
    Аудио #3
    Идентификатор : 4
    Формат : AC-3
    Формат/Информация : Audio Coding 3
    Расширение режима : CM (complete main)
    Параметр Endianness формата : Big
    Режим смешивания : Header stripping
    Идентификатор кодека : A_AC3
    Продолжительность : 2 ч. 16 м.
    Вид битрейта : Постоянный
    Битрейт : 640 Кбит/сек
    Каналы : 6 каналов
    Расположение каналов : Front: L C R, Side: L R, LFE
    Частота : 48,0 КГц
    Частота кадров : 31,250 кадров/сек (1536 spf)
    Битовая глубина : 16 бит
    Метод сжатия : С потерями
    Размер потока : 624 Мбайт (3%)
    Заголовок : Одноголосый закадровый, А.Гаврилов
    Язык : Russian
    Default : Нет
    Forced : Нет
    Аудио #4
    Идентификатор : 5
    Формат : AC-3
    Формат/Информация : Audio Coding 3
    Расширение режима : CM (complete main)
    Параметр Endianness формата : Big
    Режим смешивания : Header stripping
    Идентификатор кодека : A_AC3
    Продолжительность : 2 ч. 16 м.
    Вид битрейта : Постоянный
    Битрейт : 640 Кбит/сек
    Каналы : 6 каналов
    Расположение каналов : Front: L C R, Side: L R, LFE
    Частота : 48,0 КГц
    Частота кадров : 31,250 кадров/сек (1536 spf)
    Битовая глубина : 16 бит
    Метод сжатия : С потерями
    Размер потока : 624 Мбайт (3%)
    Заголовок : Одноголосый закадровый, Ю.Сербин
    Язык : Russian
    Default : Нет
    Forced : Нет
    Аудио #5
    Идентификатор : 6
    Формат : AC-3
    Формат/Информация : Audio Coding 3
    Расширение режима : CM (complete main)
    Параметр Endianness формата : Big
    Режим смешивания : Header stripping
    Идентификатор кодека : A_AC3
    Продолжительность : 2 ч. 16 м.
    Вид битрейта : Постоянный
    Битрейт : 640 Кбит/сек
    Каналы : 6 каналов
    Расположение каналов : Front: L C R, Side: L R, LFE
    Частота : 48,0 КГц
    Частота кадров : 31,250 кадров/сек (1536 spf)
    Битовая глубина : 16 бит
    Метод сжатия : С потерями
    Размер потока : 624 Мбайт (3%)
    Заголовок : Дубляж, Blu-Ray
    Язык : Ukrainian
    Default : Нет
    Forced : Нет
    Аудио #6
    Идентификатор : 7
    Формат : AC-3
    Формат/Информация : Audio Coding 3
    Расширение режима : CM (complete main)
    Параметр Endianness формата : Big
    Режим смешивания : Header stripping
    Идентификатор кодека : A_AC3
    Продолжительность : 2 ч. 16 м.
    Вид битрейта : Постоянный
    Битрейт : 640 Кбит/сек
    Каналы : 6 каналов
    Расположение каналов : Front: L C R, Side: L R, LFE
    Частота : 48,0 КГц
    Частота кадров : 31,250 кадров/сек (1536 spf)
    Битовая глубина : 16 бит
    Метод сжатия : С потерями
    Размер потока : 624 Мбайт (3%)
    Заголовок : Оригинал
    Язык : English
    Default : Нет
    Forced : Нет
    Текст #1
    Идентификатор : 8
    Формат : UTF-8
    Идентификатор кодека : S_TEXT/UTF8
    Идентификатор кодека/Информация : UTF-8 Plain Text
    Заголовок : Forced
    Язык : Russian
    Default : Да
    Forced : Нет
    Текст #2
    Идентификатор : 9
    Формат : UTF-8
    Идентификатор кодека : S_TEXT/UTF8
    Идентификатор кодека/Информация : UTF-8 Plain Text
    Язык : Russian
    Default : Нет
    Forced : Нет
    Текст #3
    Идентификатор : 10
    Формат : UTF-8
    Идентификатор кодека : S_TEXT/UTF8
    Идентификатор кодека/Информация : UTF-8 Plain Text
    Язык : English
    Default : Нет
    Forced : Нет
    Меню
    00:00:00.000 : en:Chapter 1
    00:03:34.171 : en:Chapter 2
    00:08:46.775 : en:Chapter 3
    00:15:56.080 : en:Chapter 4
    00:18:34.153 : en:Chapter 5
    00:21:15.315 : en:Chapter 6
    00:30:05.511 : en:Chapter 7
    00:36:56.755 : en:Chapter 8
    00:42:05.355 : en:Chapter 9
    00:48:20.020 : en:Chapter 10
    00:53:26.077 : en:Chapter 11
    00:55:42.962 : en:Chapter 12
    00:57:52.844 : en:Chapter 13
    01:00:47.476 : en:Chapter 14
    01:08:22.222 : en:Chapter 15
    01:11:41.337 : en:Chapter 16
    01:13:03.170 : en:Chapter 17
    01:14:16.743 : en:Chapter 18
    01:23:19.993 : en:Chapter 19
    01:26:49.621 : en:Chapter 20
    01:30:16.493 : en:Chapter 21
    01:35:43.737 : en:Chapter 22
    01:40:57.926 : en:Chapter 23
    01:43:07.555 : en:Chapter 24
    01:44:51.659 : en:Chapter 25
    01:48:53.609 : en:Chapter 26
    01:57:41.470 : en:Chapter 27
    02:02:21.375 : en:Chapter 28
    02:05:51.460 : en:Chapter 29
    02:07:26.805 : en:Chapter 30

    Пираты Карибского моря: Мертвецы не рассказывают сказки / Pirates of the Caribbean: Dead Men Tell No Tales (2017)

    Пираты Карибского моря: Мертвецы не рассказывают сказки / Pirates of the Caribbean: Dead Men Tell No Tales (2017)
    Год выпуска: 2017 г.
    Жанр: Фэнтези, боевик, комедия, приключения
    Страна: США
    Режиссер: Хоаким Роннинг, Эспен Сандберг
    Продолжительность: 02:09:07
    Перевод: Дубляж, авторский
    В ролях: Джонни Депп, Кира Найтли, Кая Скоделарио, Дэвид Уэнэм, Орландо Блум, Джеффри Раш, Брентон Туэйтс, Хавьер Бардем, Голшифте Фарахани, Стивен Грэм
    Описание: Капитан Джек Воробей как всегда не может и дня прожить, не попав в какую-нибудь передрягу. Причем в основном ему даже и усилий прикладывать не приходится. Так случилось и в этот раз. Джек обнаруживает, что за ним охотится его старый недруг, ужасное призрачное существо в получеловеческом обличии по имени Капитан Салазар, в команде у которого такая же нечисть, как он сам. Им только что удалось сбежать из Дьявольского треугольника, и они первым делом намерены уничтожить всех пиратов, включая Джека. Единственным шансом для спасения остается могущественный артефакт — трезубец Посейдона, дарующий своему обладателю полный контроль над морями. Успеет ли Джек найти его и сразиться с Салазаром за звание самого могущественного пирата всех морей?

    Формат видео: MKV
    Качество видео: BDRip 1080p | 60fps
    Видео кодек: H.264
    Аудио кодек: AC3
    Видео: 1920*800, 20,0 Мбит/сек, 59,940 кадров/сек
    Аудио 1: Русский, AC3, 6 ch, 640 Кбит/с Дубляж, Custom
    Аудио 2: Русский, AC3, 6 ch, 640 Кбит/с Дубляж, Blu-ray
    Аудио 3: Русский, AC3, 6 ch, 640 Кбит/с Одноголосый закадровый, Ю.Сербин
    Аудио 4: Русский, АС3, 6 ch, 640 Кбит/с Одноголосый закадровый, Ю. Живов
    Аудио 5: Английский, АС3, 6 ch, 640 Кбит/с Оригинал
    Субтитры: Русские, английские
    Главы: Есть

    Отчёт MediaInfo

    Общее
    Уникальный идентификатор : 253499044158354852105270135334070923537 (0xBEB623D728A2FA7BBD810EA11B183111)
    Полное имя : D:\Movie\Пираты Карибского моря. Коллекция\5 Пираты Карибского моря Мертвецы не рассказывают сказки (2017).mkv
    Формат : Matroska
    Версия формата : Version 2
    Размер файла : 20,9 Гбайт
    Продолжительность : 2 ч. 9 м.
    Общий поток : 23,2 Мбит/сек
    Название фильма : Мертвецы не рассказывают сказки
    Дата кодирования : UTC 2021-09-21 11:42:54
    Программа кодирования : mkvmerge v5.8.0 ('No Sleep / Pillow') built on Sep 2 2012 15:37:04
    Библиотека кодирования : libebml v1.2.3 + libmatroska v1.3.0
    Attachments : Poster
    Видео
    Идентификатор : 1
    Формат : AVC
    Формат/Информация : Advanced Video Codec
    Профиль формата : High@L4.1
    Параметр CABAC формата : Да
    Параметр ReFrames формата : 5 кадров
    Режим смешивания : Header stripping
    Идентификатор кодека : V_MPEG4/ISO/AVC
    Продолжительность : 2 ч. 9 м.
    Битрейт : 20,0 Мбит/сек
    Ширина : 1920 пикселей
    Высота : 800 пикселей
    Соотношение сторон : 2,40:1
    Режим частоты кадров : Постоянный
    Частота кадров : 59,940 (60000/1001) кадров/сек
    Цветовое пространство : YUV
    Субдискретизация насыщенности : 4:2:0
    Битовая глубина : 8 бит
    Тип развёртки : Прогрессивная
    Бит/(Пиксели*Кадры) : 0.217
    Размер потока : 17,6 Гбайт (84%)
    Библиотека кодирования : x264 core 146 r2538 121396c
    Настройки программы : cabac=1 / ref=5 / deblock=1:0:0 / analyse=0x3:0x113 / me=umh / subme=8 / psy=1 / psy_rd=1.00:0.25 / mixed_ref=1 / me_range=32 / chroma_me=1 / trellis=1 / 8x8dct=1 / cqm=0 / deadzone=6,6 / fast_pskip=1 / chroma_qp_offset=-4 / threads=12 / lookahead_threads=3 / sliced_threads=0 / nr=0 / decimate=0 / interlaced=0 / bluray_compat=0 / constrained_intra=0 / bframes=3 / b_pyramid=2 / b_adapt=2 / b_bias=0 / direct=3 / weightb=1 / open_gop=0 / weightp=2 / keyint=600 / keyint_min=60 / scenecut=40 / intra_refresh=0 / rc_lookahead=50 / rc=2pass / mbtree=1 / bitrate=20000 / ratetol=1.0 / qcomp=0.80 / qpmin=0 / qpmax=69 / qpstep=4 / cplxblur=20.0 / qblur=0.5 / vbv_maxrate=50000 / vbv_bufsize=50000 / nal_hrd=none / filler=0 / ip_ratio=1.10 / aq=1:0.50
    Язык : English
    Default : Да
    Forced : Нет
    Аудио #1
    Идентификатор : 2
    Формат : AC-3
    Формат/Информация : Audio Coding 3
    Расширение режима : CM (complete main)
    Параметр Endianness формата : Big
    Режим смешивания : Header stripping
    Идентификатор кодека : A_AC3
    Продолжительность : 2 ч. 9 м.
    Вид битрейта : Постоянный
    Битрейт : 640 Кбит/сек
    Каналы : 6 каналов
    Расположение каналов : Front: L C R, Side: L R, LFE
    Частота : 48,0 КГц
    Частота кадров : 31,250 кадров/сек (1536 spf)
    Битовая глубина : 16 бит
    Метод сжатия : С потерями
    Размер потока : 591 Мбайт (3%)
    Заголовок : Дубляж, Custom
    Язык : Russian
    Default : Да
    Forced : Нет
    Аудио #2
    Идентификатор : 3
    Формат : AC-3
    Формат/Информация : Audio Coding 3
    Расширение режима : CM (complete main)
    Параметр Endianness формата : Big
    Режим смешивания : Header stripping
    Идентификатор кодека : A_AC3
    Продолжительность : 2 ч. 9 м.
    Вид битрейта : Постоянный
    Битрейт : 640 Кбит/сек
    Каналы : 6 каналов
    Расположение каналов : Front: L C R, Side: L R, LFE
    Частота : 48,0 КГц
    Частота кадров : 31,250 кадров/сек (1536 spf)
    Битовая глубина : 16 бит
    Метод сжатия : С потерями
    Размер потока : 591 Мбайт (3%)
    Заголовок : Дубляж, Blu-ray
    Язык : Russian
    Default : Нет
    Forced : Нет
    Аудио #3
    Идентификатор : 4
    Формат : AC-3
    Формат/Информация : Audio Coding 3
    Расширение режима : CM (complete main)
    Параметр Endianness формата : Big
    Режим смешивания : Header stripping
    Идентификатор кодека : A_AC3
    Продолжительность : 2 ч. 9 м.
    Вид битрейта : Постоянный
    Битрейт : 640 Кбит/сек
    Каналы : 6 каналов
    Расположение каналов : Front: L C R, Side: L R, LFE
    Частота : 48,0 КГц
    Частота кадров : 31,250 кадров/сек (1536 spf)
    Битовая глубина : 16 бит
    Метод сжатия : С потерями
    Размер потока : 591 Мбайт (3%)
    Заголовок : Одноголосый закадровый, Ю.Сербин
    Язык : Russian
    Default : Нет
    Forced : Нет
    Аудио #4
    Идентификатор : 5
    Формат : AC-3
    Формат/Информация : Audio Coding 3
    Расширение режима : CM (complete main)
    Параметр Endianness формата : Big
    Режим смешивания : Header stripping
    Идентификатор кодека : A_AC3
    Продолжительность : 2 ч. 9 м.
    Вид битрейта : Постоянный
    Битрейт : 640 Кбит/сек
    Каналы : 6 каналов
    Расположение каналов : Front: L C R, Side: L R, LFE
    Частота : 48,0 КГц
    Частота кадров : 31,250 кадров/сек (1536 spf)
    Битовая глубина : 16 бит
    Метод сжатия : С потерями
    Размер потока : 591 Мбайт (3%)
    Заголовок : Одноголосый закадровый, Ю. Живов
    Язык : Russian
    Default : Нет
    Forced : Нет
    Аудио #5
    Идентификатор : 6
    Формат : AC-3
    Формат/Информация : Audio Coding 3
    Расширение режима : CM (complete main)
    Параметр Endianness формата : Big
    Режим смешивания : Header stripping
    Идентификатор кодека : A_AC3
    Продолжительность : 2 ч. 9 м.
    Вид битрейта : Постоянный
    Битрейт : 640 Кбит/сек
    Каналы : 6 каналов
    Расположение каналов : Front: L C R, Side: L R, LFE
    Частота : 48,0 КГц
    Частота кадров : 31,250 кадров/сек (1536 spf)
    Битовая глубина : 16 бит
    Метод сжатия : С потерями
    Размер потока : 591 Мбайт (3%)
    Заголовок : Оригинал
    Язык : English
    Default : Нет
    Forced : Нет
    Текст #1
    Идентификатор : 7
    Формат : UTF-8
    Идентификатор кодека : S_TEXT/UTF8
    Идентификатор кодека/Информация : UTF-8 Plain Text
    Заголовок : Forced
    Язык : Russian
    Default : Да
    Forced : Нет
    Текст #2
    Идентификатор : 8
    Формат : UTF-8
    Идентификатор кодека : S_TEXT/UTF8
    Идентификатор кодека/Информация : UTF-8 Plain Text
    Заголовок : Blu-ray EUR
    Язык : Russian
    Default : Нет
    Forced : Нет
    Текст #3
    Идентификатор : 9
    Формат : UTF-8
    Идентификатор кодека : S_TEXT/UTF8
    Идентификатор кодека/Информация : UTF-8 Plain Text
    Заголовок : Full
    Язык : English
    Default : Нет
    Forced : Нет
    Текст #4
    Идентификатор : 10
    Формат : UTF-8
    Идентификатор кодека : S_TEXT/UTF8
    Идентификатор кодека/Информация : UTF-8 Plain Text
    Заголовок : SDH
    Язык : English
    Default : Нет
    Forced : Нет
    Текст #5
    Идентификатор : 11
    Формат : UTF-8
    Идентификатор кодека : S_TEXT/UTF8
    Идентификатор кодека/Информация : UTF-8 Plain Text
    Заголовок : SDH-Colored
    Язык : English
    Default : Нет
    Forced : Нет
    Меню
    00:00:00.000 : en:Chapter 1
    00:05:49.514 : en:Chapter 2
    00:08:34.221 : en:Chapter 3
    00:13:40.820 : en:Chapter 4
    00:16:29.153 : en:Chapter 5
    00:22:33.852 : en:Chapter 6
    00:25:19.267 : en:Chapter 7
    00:28:06.101 : en:Chapter 8
    00:31:41.771 : en:Chapter 9
    00:33:44.814 : en:Chapter 10
    00:37:02.051 : en:Chapter 11
    00:42:27.710 : en:Chapter 12
    00:49:09.069 : en:Chapter 13
    00:54:00.277 : en:Chapter 14
    00:57:19.393 : en:Chapter 15
    01:00:38.717 : en:Chapter 16
    01:08:29.939 : en:Chapter 17
    01:11:57.020 : en:Chapter 18
    01:16:50.939 : en:Chapter 19
    01:19:27.470 : en:Chapter 20
    01:25:04.805 : en:Chapter 21
    01:27:42.171 : en:Chapter 22
    01:31:43.787 : en:Chapter 23
    01:38:22.813 : en:Chapter 24
    01:42:36.774 : en:Chapter 25
    01:47:23.560 : en:Chapter 26
    01:52:58.688 : en:Chapter 27
    01:59:09.934 : en:Chapter 28

    Release was prepared by 60-fps.org



You cannot post new topics in this forum
You cannot reply to topics in this forum
You cannot edit your posts in this forum
You cannot delete your posts in this forum
You cannot vote in polls in this forum
You cannot attach files in this forum
You cannot download files in this forum