[Цитировать]
Гость

-Название: Пиноккио
Оригинальное название: Pinocchio
Год выпуска: 1940
Страна: США
Жанр: мультфильм, фэнтези, драма, семейный, музыка
Продолжительность: 01:27:44
Перевод: Дубляж
Субтитры:русские (Полные), английские (Полные)-Режиссер: Норман Фергюсон / Norman Ferguson, Т. Хи / T. Hee, Уилфред Джексон / Wilfred Jackson-В ролях: Мэл Бланк (Gideon (hiccup) / Marionette Soldiers, озвучка / в титрах не указан), Дон Броди (Carnival Barkers, озвучка / в титрах не указан), Уолтер Кэтлетт (J. Worthington Foulfellow, озвучка / в титрах не указан), Мэрион Дарлингтон (Birds, озвучка / в титрах не указана), Фрэнки Дарро (Lampwick, озвучка / в титрах не указан), Клифф Эдвардс (Jiminy Cricket, озвучка / в титрах не указан), Дики Джонс (Pinocchio / Alexander, озвучка / в титрах не указан), Чарльз Джуделс (Stromboli / The Coachman, озвучка / в титрах не указан), Кларенс Нэш (Figaro / Roughhouse Statue / Donkeys, озвучка / в титрах не указан), Патриция Пейдж (Marionettes, озвучка / в титрах не указана), Кристиан Раб (Geppetto, озвучка / в титрах не указан), Эвелин Венейбл (The Blue Fairy, озвучка / в титрах не указана)-Описание:
Голубая фея оживила куклу-марионетку, но чтобы стать настоящим человеком, герою надо в добрых делах проявить свою храбрость и честность. И вот длинноносый непоседа и его совестливый друг сверчок Джимини Крикет отправляются навстречу самым невероятным приключениям.
Они встретят злого кукольника Стромболи, заглянут на обманчивый Остров удовольствий, где непослушных мальчиков превращают в ослов на продажу, и даже побывают в чреве чудовищного кита, проглотившего отца Пиноккио - мастера Джепетто.-Рейтинг
kinopoisk.ru: 7.604 (8973)
imdb.com: 7.60 (61 868)
MPAA: G - Нет возрастных ограничений-Автор рипа:Tiberiumsun69
Качество: BDRip 1080p / 60 FPS
Формат: MKV
Видеокодек: MPEG-4 AVC/H.264
Битрейт видео: ~9749 kb/s
Размер кадра: 1456*1080
Аудио 1 Русский: AC3 5.1, 640 kb/s
Аудио 2 Английский: AC3 5.1, 640 kb/s
Навигация по главам: есть-

MI

Общее
Уникальный идентификатор : 218423655479570925528697320641599682984 (0xA452DDA9552EF53FAF82EE7AC978B9A8)
Полное имя : F:\Пиноккио 1080p 60fps.mkv
Формат : Matroska
Версия формата : Version 4 / Version 2
Размер файла : 6,90 Гбайт
Продолжительность : 1 ч. 27 м.
Общий поток : 11,3 Мбит/сек
Дата кодирования : UTC 2014-07-05 11:17:31
Программа кодирования : mkvmerge v7.0.0 ('Where We Going') 64bit built on Jun 9 2014 15:16:27
Библиотека кодирования : libebml v1.3.0 + libmatroska v1.4.1
DURATION : 01:27:44.256000000
NUMBER_OF_FRAMES : 164508
NUMBER_OF_BYTES : 421140480
_STATISTICS_WRITING_APP : mkvmerge v7.0.0 ('Where We Going') 64bit built on Jun 9 2014 15:16:27
_STATISTICS_WRITING_DATE_UTC : 2014-07-05 11:17:31
_STATISTICS_TAGS : BPS DURATION NUMBER_OF_FRAMES NUMBER_OF_BYTES
Видео
Идентификатор : 1
Формат : AVC
Формат/Информация : Advanced Video Codec
Профиль формата : High@L4.1
Параметр CABAC формата : Да
Параметр ReFrames формата : 4 кадра
Идентификатор кодека : V_MPEG4/ISO/AVC
Продолжительность : 1 ч. 27 м.
Битрейт : 9749 Кбит/сек
Ширина : 1456 пикселей
Высота : 1080 пикселей
Соотношение сторон : 4:3
Режим частоты кадров : Постоянный
Частота кадров : 59,880 кадров/сек
Частота кадров в оригинале : 59,940 кадров/сек
Цветовое пространство : YUV
Субдискретизация насыщенности : 4:2:0
Битовая глубина : 8 бит
Тип развёртки : Прогрессивная
Бит/(Пиксели*Кадры) : 0.104
Размер потока : 5,97 Гбайт (87%)
Библиотека кодирования : x264 core 130 r2273 b3065e6
Настройки программы : cabac=1 / ref=4 / deblock=1:-1:-1 / analyse=0x3:0 / me=umh / subme=9 / psy=1 / psy_rd=1.00:0.10 / mixed_ref=1 / me_range=24 / chroma_me=0 / trellis=1 / 8x8dct=1 / cqm=0 / deadzone=21,11 / fast_pskip=0 / chroma_qp_offset=-3 / threads=12 / lookahead_threads=1 / sliced_threads=0 / nr=0 / decimate=0 / interlaced=0 / bluray_compat=0 / constrained_intra=0 / bframes=5 / b_pyramid=2 / b_adapt=2 / b_bias=0 / direct=1 / weightb=1 / open_gop=0 / weightp=2 / keyint=599 / keyint_min=59 / scenecut=40 / intra_refresh=0 / rc=crf / mbtree=0 / crf=18.0 / qcomp=0.60 / qpmin=0 / qpmax=69 / qpstep=4 / ip_ratio=1.40 / pb_ratio=1.30 / aq=1:0.90
Язык : English
Default : Да
Forced : Нет
DURATION : 01:27:44.198000000
NUMBER_OF_FRAMES : 315536
NUMBER_OF_BYTES : 6559591532
_STATISTICS_WRITING_APP : mkvmerge v7.0.0 ('Where We Going') 64bit built on Jun 9 2014 15:16:27
_STATISTICS_WRITING_DATE_UTC : 2014-07-05 11:17:31
_STATISTICS_TAGS : BPS DURATION NUMBER_OF_FRAMES NUMBER_OF_BYTES
Аудио #1
Идентификатор : 2
Формат : AC-3
Формат/Информация : Audio Coding 3
Расширение режима : CM (complete main)
Параметр Endianness формата : Big
Идентификатор кодека : A_AC3
Продолжительность : 1 ч. 27 м.
Вид битрейта : Постоянный
Битрейт : 640 Кбит/сек
Каналы : 6 каналов
Расположение каналов : Front: L C R, Side: L R, LFE
Частота : 48,0 КГц
Битовая глубина : 16 бит
Метод сжатия : С потерями
Размер потока : 402 Мбайт (6%)
Заголовок : Dub
Язык : Russian
Default : Да
Forced : Нет
Аудио #2
Идентификатор : 5
Формат : AC-3
Формат/Информация : Audio Coding 3
Расширение режима : CM (complete main)
Параметр Endianness формата : Big
Идентификатор кодека : A_AC3
Продолжительность : 1 ч. 27 м.
Вид битрейта : Постоянный
Битрейт : 640 Кбит/сек
Каналы : 6 каналов
Расположение каналов : Front: L C R, Side: L R, LFE
Частота : 48,0 КГц
Битовая глубина : 16 бит
Метод сжатия : С потерями
Размер потока : 402 Мбайт (6%)
Заголовок : Original
Язык : English
Default : Нет
Forced : Нет
Текст #1
Идентификатор : 3
Формат : UTF-8
Идентификатор кодека : S_TEXT/UTF8
Идентификатор кодека/Информация : UTF-8 Plain Text
Заголовок : Full
Язык : Russian
Default : Нет
Forced : Нет
Текст #2
Идентификатор : 4
Формат : UTF-8
Идентификатор кодека : S_TEXT/UTF8
Идентификатор кодека/Информация : UTF-8 Plain Text
Заголовок : Full
Язык : English
Default : Нет
Forced : Нет
Меню
00:00:00.000 : en:Opening Credits ("When You Wish Upon A Star")
00:02:21.516 : en:One Night, A Long Time Ago...
00:06:16.584 : en:"Little Wooden Head"
00:11:33.484 : en:Geppetto's Wish
00:15:17.082 : en:The Blue Fairy
00:18:43.705 : en:"Give A Little Whistle"
00:21:33.750 : en:A Wish Come True
00:26:58.366 : en:Off To School
00:28:48.101 : en:Honest John and Gideon
00:30:45.468 : en:Pinocchio Is Led Astray ("Hi Diddle Dee Dee")
00:36:32.440 : en:"I've Got No Strings"
00:40:56.328 : en:Pinocchio Taken Prisoner
00:47:43.276 : en:The Blue Fairy Comes To Pinocchio's Aid
00:50:32.654 : en:The Coachman's Proposition
00:53:06.808 : en:Honest John Waylays Pinocchio Again
00:57:06.256 : en:Pleasure Island
00:58:47.899 : en:Later That Night
01:04:06.884 : en:Lampwick Makes a Jackass of Himself
01:06:31.987 : en:Sad Homecoming
01:09:08.894 : en:The Undersea Search For Geppetto
01:14:52.237 : en:Monstro Awakens
01:17:01.283 : en:A Soggy Reunion
01:20:08.470 : en:A Whale of a Sneeze
01:24:29.647 : en:The Dream Fulfilled
01:27:43.257 : en:

Скриншоты

Просьба к переливающим на другие сайты, в оформлении указывайте пожалуйста авторство рипа - Tiberiumsun69

Топик был перенесен из форума Зарубежные фильмы 60fps в форум Мультфильмы 60fps
KRYL
 
Показать сообщения:    

Текущее время: 05-Дек 01:26

Часовой пояс: UTC + 3


Вы не можете начинать темы
Вы не можете отвечать на сообщения
Вы не можете редактировать свои сообщения
Вы не можете удалять свои сообщения
Вы не можете голосовать в опросах
Вы не можете прикреплять файлы к сообщениям
Вы не можете скачивать файлы