[Цитировать]
BOT2

-Название: Пингвины Мадагаскара
Оригинальное название: Penguins of Madagascar
Год выпуска: 2014
Страна: США
Жанр: мультфильм, комедия, приключения, семейный
Продолжительность: 01:31:49
Перевод: Дубляж
Субтитры: русские (Форсированные), русские (Полные), английские (Полные)-Режиссер: Эрик Дарнелл / Eric Darnell, Саймон Дж. Смит / Simon J. Smith-В ролях: Том МакГрат (Skipper, озвучка), Крис Миллер (Kowalski, озвучка), Кристофер Найтс (Private, озвучка), Конрад Вернон (Rico, озвучка), Джон Малкович (Dave, озвучка), Бенедикт Камбербэтч (Classified, озвучка), Кен Жонг (Short Fuse, озвучка), Аннет Махендру (Eva, озвучка), Петер Стормаре (Corporal, озвучка), Энди Рихтер (Mort, озвучка), Дэнни Джейкобс (King Julien), Шон Чэрмэтц (Cricket, озвучка)-Описание:
Четвёрка пингвинов-шпионов - Шкипер, Ковальски, Рико и Прапор - объединяется с командой «Северный ветер», помогающей беззащитным животным. Им предстоит остановить злобного осьминога, доктора Октавиуса Брайна, желающего уничтожить этот мир...-Рейтинг
-Качество: BDRip-AVC 60fps
Формат: MKV
Видео кодек: AVC
Аудио кодек:AC3
Видео: AVC, 1024x552 (1.855), 5100 kbps, 59,940 fps, 0,151 bpp
Аудио: русский / AC3 / 5.1 / 48 kHz / 640 kbps / 16 bit |Дубляж|
Навигация по главам: есть- -

MI

General
Unique ID : 212878831742001327658927434435863754621 (0xA026F8BE90F191D5968A38A01487B77D)
Complete name : A:\Фильмы\Пингвины Мадагаскара BDRip-AVC 60fps R.G. HD-Films.mkv
Format : Matroska
Format version : Version 4 / Version 2
File size : 3.69 GiB
Duration : 1h 31mn
Overall bit rate : 5 747 Kbps
Movie name : Tiberiumsun69
Encoded date : UTC 2015-06-27 08:12:00
Writing application : mkvmerge v7.9.0 ('Birds') 64bit
Writing library : libebml v1.3.1 + libmatroska v1.4.2
Attachment : Yes
Video
ID : 1
Format : AVC
Format/Info : Advanced Video Codec
Format profile : High@L4.1
Format settings, CABAC : Yes
Format settings, ReFrames : 4 frames
Codec ID : V_MPEG4/ISO/AVC
Duration : 1h 31mn
Bit rate : 5 100 Kbps
Width : 1 024 pixels
Height : 552 pixels
Display aspect ratio : 1.855
Frame rate : 59.940 fps
Color space : YUV
Chroma subsampling : 4:2:0
Bit depth : 8 bits
Scan type : Progressive
Bits/(Pixel*Frame) : 0.151
Stream size : 3.20 GiB (87%)
Title : Tiberiumsun69
Writing library : x264 core 146 r2538 121396c
Encoding settings : cabac=1 / ref=4 / deblock=1:0:0 / analyse=0x3:0x113 / me=umh / subme=9 / psy=1 / psy_rd=1.00:0.10 / mixed_ref=1 / me_range=32 / chroma_me=1 / trellis=2 / 8x8dct=1 / cqm=0 / deadzone=21,11 / fast_pskip=0 / chroma_qp_offset=-3 / threads=12 / lookahead_threads=3 / sliced_threads=0 / nr=0 / decimate=1 / interlaced=0 / bluray_compat=0 / constrained_intra=0 / bframes=16 / b_pyramid=2 / b_adapt=2 / b_bias=0 / direct=3 / weightb=1 / open_gop=0 / weightp=2 / keyint=600 / keyint_min=59 / scenecut=40 / intra_refresh=0 / rc_lookahead=60 / rc=2pass / mbtree=1 / bitrate=5100 / ratetol=1.0 / qcomp=0.60 / qpmin=0 / qpmax=69 / qpstep=4 / cplxblur=20.0 / qblur=0.5 / vbv_maxrate=50000 / vbv_bufsize=62500 / nal_hrd=none / filler=0 / ip_ratio=1.40 / aq=1:1.00
Language : English
Default : Yes
Forced : No
Audio
ID : 2
Format : AC-3
Format/Info : Audio Coding 3
Mode extension : CM (complete main)
Codec ID : A_AC3
Duration : 1h 31mn
Bit rate mode : Constant
Bit rate : 640 Kbps
Channel(s) : 6 channels
Channel positions : Front: L C R, Side: L R, LFE
Sampling rate : 48.0 KHz
Bit depth : 16 bits
Compression mode : Lossy
Stream size : 420 MiB (11%)
Title : Дубляж
Language : Russian
Default : No
Forced : No
Text #1
ID : 3
Format : UTF-8
Codec ID : S_TEXT/UTF8
Codec ID/Info : UTF-8 Plain Text
Title : Форсированные
Language : Russian
Default : Yes
Forced : No
Text #2
ID : 4
Format : UTF-8
Codec ID : S_TEXT/UTF8
Codec ID/Info : UTF-8 Plain Text
Title : Полные
Language : Russian
Default : No
Forced : No
Text #3
ID : 5
Format : UTF-8
Codec ID : S_TEXT/UTF8
Codec ID/Info : UTF-8 Plain Text
Title : Полные
Language : English
Default : No
Forced : No
Menu
00:00:00.000 : en:00:00:00.000
00:03:38.718 : en:00:03:38.718
00:07:27.739 : en:00:07:27.739
00:09:24.272 : en:00:09:24.272
00:12:10.521 : en:00:12:10.521
00:16:09.302 : en:00:16:09.302
00:19:22.453 : en:00:19:22.453
00:23:05.509 : en:00:23:05.509
00:26:58.659 : en:00:26:58.659
00:29:01.323 : en:00:29:01.323
00:30:36.418 : en:00:30:36.418
00:34:01.206 : en:00:34:01.206
00:38:05.992 : en:00:38:05.992
00:41:31.197 : en:00:41:31.197
00:44:25.162 : en:00:44:25.162
00:46:39.880 : en:00:46:39.880
00:49:12.950 : en:00:49:12.950
00:54:31.560 : en:00:54:31.560
00:56:01.066 : en:00:56:01.066
01:00:04.017 : en:01:00:04.017
01:03:07.242 : en:01:03:07.242
01:06:41.998 : en:01:06:41.998
01:09:52.271 : en:01:09:52.271
01:12:10.409 : en:01:12:10.409
01:14:19.914 : en:01:14:19.914
01:15:59.013 : en:01:15:59.013
01:18:28.162 : en:01:18:28.162
01:20:49.636 : en:01:20:49.636

Скриншоты

 
Показать сообщения:    

Текущее время: 05-Дек 01:24

Часовой пояс: UTC + 3


Вы не можете начинать темы
Вы не можете отвечать на сообщения
Вы не можете редактировать свои сообщения
Вы не можете удалять свои сообщения
Вы не можете голосовать в опросах
Вы не можете прикреплять файлы к сообщениям
Вы не можете скачивать файлы