[Цитировать]
Kryl

«Пила»серия триллеров, связанных общей тематикой. Идея принадлежит Ли Уоннеллу и Джеймсу Вану. 23 июля 2010 года (ещё до выхода «Пилы 3D»), серия фильмов была занесена в Книгу рекордов Гиннесса как самый кассовый хоррор-киносериал всех времен, собрав по всему миру 873.3 млн, обогнав такие ставшие классикой серии, как «Пятница, 13-е», «Кошмар на улице Вязов», «Хэллоуин» и «Техасская резня бензопилой».

Пила: Игра на выживание / Saw (2004)

«Сколько крови ты прольешь для неё?»- Информация
Название: Пила: Игра на выживание
Оригинальное название: Saw
Год выхода: 2004
Жанр: Ужасы, детектив
Режиссер: Джеймс Ван
Сценарий: Ли Уоннелл, Джеймс Ван
Продюсер: Марк Бёрг, Грегг Хоффман, Орен Каулз
В ролях: Ли Уоннелл, Кэри Элвис, Дэнни Гловер, Моника Поттер, Тобин Белл, Дина Мейер, Кен Люн, Майкл Эмерсон, Шоуни Смит, Бенито Мартинес
--Сюжет:
Двое незнакомцев просыпаются в странном подвальном помещении. В центре помещения — труп мужчины с простреленной головой и оружием в ослабевшей руке. Они же прикованы к стенам цепями за щиколотки. Оба не знают, как там оказались.
Путём нехитрых предположений и спрятанных вокруг них ответов, как частей какого-то паззла, они узнают, по крайней мере, зачем они здесь и что именно от них ждёт их Похититель. Голос с найденной плёнки бесстрастно вещает: «Если ты хочешь спасти свою жену и детей, убей другого». Убить другого можно, только дотянувшись до оружия.
Дотянуться до оружия нельзя иначе, как избавившись от цепи. Избавиться от цепи нельзя иначе, кроме как отпилив ногу. Времени — мало. Но достаточно, чтобы реконструировать цепочку странных событий, которые привели каждого из них туда, где они сейчас оказались…
- - Страна: США, Австралия
Продолжительность: 01:42:46
-- Файл
Кодек: MPEG4/ISO/AVC H.264
Формат: MKV
Качество: BDRip-AVC 60 fps
Видео: 1024x576 (16:9) | 59.940 fps | 4.8 Мбит/сек
Аудио: AC3 | 5.1 | 48 kHz | 640 kbps | 16 bit | Дубляж + MVO на реж. вставки |
Субтитры: Русские (Полные), английские (Полные)

MedifInfo

Video
ID : 1
Format : AVC
Format/Info : Advanced Video Codec
Format profile : High@L4.1
Format settings, CABAC : Yes
Format settings, ReFrames : 4 frames
Codec ID : V_MPEG4/ISO/AVC
Duration : 1h 42mn
Bit rate : 4 860 Kbps
Width : 1 024 pixels
Height : 576 pixels
Display aspect ratio : 16:9
Frame rate : 59.940 fps
Color space : YUV
Chroma subsampling : 4:2:0
Bit depth : 8 bits
Scan type : Progressive
Bits/(Pixel*Frame) : 0.137
Stream size : 3.41 GiB (86%)
Title : Tiberiumsun69
Writing library : x264 core 146 r2538 121396c
Encoding settings : cabac=1 / ref=3 / deblock=1:0:0 / analyse=0x3:0x113 / me=umh / subme=9 / psy=1 / psy_rd=1.00:0.10 / mixed_ref=1 / me_range=32 / chroma_me=1 / trellis=2 / 8x8dct=1 / cqm=0 / deadzone=21,11 / fast_pskip=0 / chroma_qp_offset=-3 / threads=12 / lookahead_threads=3 / sliced_threads=0 / nr=0 / decimate=1 / interlaced=0 / bluray_compat=0 / constrained_intra=0 / bframes=16 / b_pyramid=2 / b_adapt=2 / b_bias=0 / direct=3 / weightb=1 / open_gop=0 / weightp=2 / keyint=600 / keyint_min=59 / scenecut=40 / intra_refresh=0 / rc_lookahead=40 / rc=2pass / mbtree=0 / bitrate=4860 / ratetol=1.0 / qcomp=0.60 / qpmin=0 / qpmax=69 / qpstep=4 / cplxblur=20.0 / qblur=0.5 / vbv_maxrate=14000 / vbv_bufsize=14000 / nal_hrd=none / filler=0 / ip_ratio=1.40 / pb_ratio=1.30 / aq=1:1.00
Language : English
Default : Yes
Forced : No
Audio
ID : 2
Format : AC-3
Format/Info : Audio Coding 3
Mode extension : CM (complete main)
Codec ID : A_AC3
Duration : 1h 42mn
Bit rate mode : Constant
Bit rate : 640 Kbps
Channel(s) : 6 channels
Channel positions : Front: L C R, Side: L R, LFE
Sampling rate : 48.0 KHz
Bit depth : 16 bits
Compression mode : Lossy
Stream size : 470 MiB (12%)
Title : Дубляж + MVO на реж. вставки
Language : Russian
Default : Yes
Forced : No
Text #1
ID : 3
Format : UTF-8
Codec ID : S_TEXT/UTF8
Codec ID/Info : UTF-8 Plain Text
Title : Полные
Language : Russian
Default : No
Forced : No
Text #2
ID : 4
Format : UTF-8
Codec ID : S_TEXT/UTF8
Codec ID/Info : UTF-8 Plain Text
Title : Полные
Language : English
Default : No
Forced : No
Menu
00:00:00.000 : en:Chapter 00
00:05:00.000 : en:Chapter 01
00:10:00.000 : en:Chapter 02
00:15:00.000 : en:Chapter 03
00:20:00.000 : en:Chapter 04
00:25:00.000 : en:Chapter 05
00:30:00.000 : en:Chapter 06
00:35:00.000 : en:Chapter 07
00:40:00.000 : en:Chapter 08
00:45:00.000 : en:Chapter 09
00:50:00.000 : en:Chapter 10
00:55:00.000 : en:Chapter 11
01:00:00.000 : en:Chapter 12
01:05:00.000 : en:Chapter 13
01:10:00.000 : en:Chapter 14
01:15:00.000 : en:Chapter 15
01:20:00.000 : en:Chapter 16
01:25:00.000 : en:Chapter 17
01:30:00.000 : en:Chapter 18
01:35:00.000 : en:Chapter 19
01:40:00.000 : en:Chapter 20

Пила 2 / Saw II (2005)

«О да, крови будет много»- Информация
Название: Пила 2
Оригинальное название: Saw II
Год выхода: 2005
Жанр: Ужасы, детектив
Режиссер: Даррен Линн Боусман
Сценарий: Ли Уоннелл, Даррен Линн Боусман
Продюсер: Марк Бёрг, Грегг Хоффман, Орен Каулз
В ролях: Тобин Белл, Шоуни Смит, Донни Уолберг, Эрик Кнудсен, Фрэнки Джи, Гленн Пламмер, Эммануэль Вожье, Беверли Митчелл, Тим Берд, Дина Мейер
--Сюжет:
Во время расследования подробностей кровавых деяний неизвестного убийцы детектив Эрик Мэтьюс ловит себя на мысли, что они очень похожи на работу Пилы — известного маньяка, который смог исчезнуть, оставив за собой множество жертв. Метьюс оказывается прав. Пила снова взялся за свое ужасное ремесло. Только на этот раз вместо двух людей, он запирает в комнате смерти с единственных способом выбраться живым, сразу восемь человек. Восемь никак не связанных друг с другом незнакомцев оказываются вынуждены вступить в игру сумасшедшего убийцы, ставками в которой будут их жизни…- - Страна: США, Канада
Продолжительность: 01:34:34
-- Файл
Кодек: MPEG4/ISO/AVC H.264
Формат: MKV
Качество: BDRip-AVC 60 fps
Видео: 1024x576 (16:9) | 59.940 fps | 5.3 Мбит/сек
Аудио: AC3 | 5.1 | 48 kHz | 640 kbps | 16 bit | Дубляж + MVO на реж. вставки |
Субтитры: Русские (Полные), английские (Полные)

MedifInfo

Video
ID : 1
Format : AVC
Format/Info : Advanced Video Codec
Format profile : High@L4.1
Format settings, CABAC : Yes
Format settings, ReFrames : 4 frames
Codec ID : V_MPEG4/ISO/AVC
Duration : 1h 34mn
Bit rate : 5 300 Kbps
Width : 1 024 pixels
Height : 576 pixels
Display aspect ratio : 16:9
Frame rate : 59.940 fps
Color space : YUV
Chroma subsampling : 4:2:0
Bit depth : 8 bits
Scan type : Progressive
Bits/(Pixel*Frame) : 0.150
Stream size : 3.42 GiB (87%)
Title : Tiberiumsun69
Writing library : x264 core 146 r2538 121396c
Encoding settings : cabac=1 / ref=3 / deblock=1:0:0 / analyse=0x3:0x113 / me=umh / subme=9 / psy=1 / psy_rd=1.00:0.10 / mixed_ref=1 / me_range=32 / chroma_me=1 / trellis=2 / 8x8dct=1 / cqm=0 / deadzone=21,11 / fast_pskip=0 / chroma_qp_offset=-3 / threads=12 / lookahead_threads=3 / sliced_threads=0 / nr=0 / decimate=1 / interlaced=0 / bluray_compat=0 / constrained_intra=0 / bframes=16 / b_pyramid=2 / b_adapt=2 / b_bias=0 / direct=3 / weightb=1 / open_gop=0 / weightp=2 / keyint=600 / keyint_min=59 / scenecut=40 / intra_refresh=0 / rc_lookahead=40 / rc=2pass / mbtree=0 / bitrate=5300 / ratetol=1.0 / qcomp=0.60 / qpmin=0 / qpmax=69 / qpstep=4 / cplxblur=20.0 / qblur=0.5 / vbv_maxrate=14000 / vbv_bufsize=14000 / nal_hrd=none / filler=0 / ip_ratio=1.40 / pb_ratio=1.30 / aq=1:1.00
Language : English
Default : Yes
Forced : No
Audio
ID : 2
Format : AC-3
Format/Info : Audio Coding 3
Mode extension : CM (complete main)
Codec ID : A_AC3
Duration : 1h 34mn
Bit rate mode : Constant
Bit rate : 640 Kbps
Channel(s) : 6 channels
Channel positions : Front: L C R, Side: L R, LFE
Sampling rate : 48.0 KHz
Bit depth : 16 bits
Compression mode : Lossy
Stream size : 433 MiB (11%)
Title : Дубляж + MVO на реж. вставки
Language : Russian
Default : Yes
Forced : No
Text #1
ID : 3
Format : UTF-8
Codec ID : S_TEXT/UTF8
Codec ID/Info : UTF-8 Plain Text
Title : Полные
Language : Russian
Default : No
Forced : No
Text #2
ID : 4
Format : UTF-8
Codec ID : S_TEXT/UTF8
Codec ID/Info : UTF-8 Plain Text
Title : Полные
Language : English
Default : No
Forced : No
Menu
00:00:00.000 : en:Chapter 1
00:04:50.248 : en:Chapter 2
00:06:54.789 : en:Chapter 3
00:09:13.886 : en:Chapter 4
00:10:49.065 : en:Chapter 5
00:15:14.038 : en:Chapter 6
00:22:01.611 : en:Chapter 7
00:34:05.626 : en:Chapter 8
00:43:00.619 : en:Chapter 9
00:50:32.446 : en:Chapter 10
01:00:37.258 : en:Chapter 11
01:04:26.654 : en:Chapter 12
01:08:31.565 : en:Chapter 13
01:09:44.763 : en:Chapter 14
01:11:58.814 : en:Chapter 15
01:19:51.161 : en:Chapter 16
01:23:00.976 : en:Chapter 17
01:28:48.906 : en:Chapter 18

Пила 3 / Saw III (2006)

«Жить или умереть? Выбор за тобой»- Информация
Название: Пила 3
Оригинальное название: Saw III
Год выхода: 2006
Жанр: Ужасы, детектив
Режиссер: Даррен Линн Боусман
Сценарий: Ли Уоннелл, Джеймс Ван
Продюсер: Марк Бёрг, Грегг Хоффман, Орен Каулз
В ролях: Тобин Белл, Шоуни Смит, Энгус МакФадьен, Бахар Сумех, Донни Уолберг, Дина Мейер, Ли Уоннелл, Мфо Коахо, Бэрри Флэтмэн, Лайрик Бент
--Сюжет:
Изобретатель зловещих игр остается безнаказанным и в итоге бесследно исчезает вместе со своей сообщницей Амандой. В то время, как детективы тщетно пытаются выйти на его след, доктор Линн Денлон становится очередной жертвой этого маньяка.
Однажды ночью Линн похищают и привозят в заброшенный склад, где она встречается с самим злодеем, находящимся на смертном одре. Ей приказывают сохранять жизнь этому безумцу, пока Джефф, еще одна из его жертв, не доведет до конца начатую с ним «игру»…
- - Страна: США, Канада
Продолжительность: 01:53:44
-- Файл
Кодек: MPEG4/ISO/AVC H.264
Формат: MKV
Качество: BDRip-AVC 60 fps
Видео: 1024x576 (16:9) | 59.940 fps | 4.3 Мбит/сек
Аудио: AC3 | 5.1 | 48 kHz | 640 kbps | 16 bit | Дубляж + MVO на реж. вставки |
Субтитры: Русские (Полные), английские (Полные)

MedifInfo

Video
ID : 1
Format : AVC
Format/Info : Advanced Video Codec
Format profile : High@L4.1
Format settings, CABAC : Yes
Format settings, ReFrames : 4 frames
Codec ID : V_MPEG4/ISO/AVC
Duration : 1h 53mn
Bit rate : 4 330 Kbps
Width : 1 024 pixels
Height : 576 pixels
Display aspect ratio : 16:9
Frame rate : 59.940 fps
Color space : YUV
Chroma subsampling : 4:2:0
Bit depth : 8 bits
Scan type : Progressive
Bits/(Pixel*Frame) : 0.122
Stream size : 3.36 GiB (85%)
Title : Tiberiumsun69
Writing library : x264 core 146 r2538 121396c
Encoding settings : cabac=1 / ref=3 / deblock=1:0:0 / analyse=0x3:0x113 / me=umh / subme=9 / psy=1 / psy_rd=1.00:0.10 / mixed_ref=1 / me_range=32 / chroma_me=1 / trellis=2 / 8x8dct=1 / cqm=0 / deadzone=21,11 / fast_pskip=0 / chroma_qp_offset=-3 / threads=12 / lookahead_threads=3 / sliced_threads=0 / nr=0 / decimate=1 / interlaced=0 / bluray_compat=0 / constrained_intra=0 / bframes=16 / b_pyramid=2 / b_adapt=2 / b_bias=0 / direct=3 / weightb=1 / open_gop=0 / weightp=2 / keyint=600 / keyint_min=59 / scenecut=40 / intra_refresh=0 / rc_lookahead=40 / rc=2pass / mbtree=0 / bitrate=4330 / ratetol=1.0 / qcomp=0.60 / qpmin=0 / qpmax=69 / qpstep=4 / cplxblur=20.0 / qblur=0.5 / vbv_maxrate=14000 / vbv_bufsize=14000 / nal_hrd=none / filler=0 / ip_ratio=1.40 / pb_ratio=1.30 / aq=1:1.00
Language : English
Default : Yes
Forced : No
Audio
ID : 2
Format : AC-3
Format/Info : Audio Coding 3
Mode extension : CM (complete main)
Codec ID : A_AC3
Duration : 1h 53mn
Bit rate mode : Constant
Bit rate : 640 Kbps
Channel(s) : 6 channels
Channel positions : Front: L C R, Side: L R, LFE
Sampling rate : 48.0 KHz
Bit depth : 16 bits
Compression mode : Lossy
Stream size : 521 MiB (13%)
Title : Дубляж + MVO на реж. вставки
Language : Russian
Default : Yes
Forced : No
Text #1
ID : 3
Format : UTF-8
Codec ID : S_TEXT/UTF8
Codec ID/Info : UTF-8 Plain Text
Title : Полные
Language : Russian
Default : No
Forced : No
Text #2
ID : 4
Format : UTF-8
Codec ID : S_TEXT/UTF8
Codec ID/Info : UTF-8 Plain Text
Title : Полные
Language : English
Default : No
Forced : No
Menu
00:00:00.000 : en:Chapter 1
00:05:00.675 : en:Chapter 2
00:13:31.227 : en:Chapter 3
00:18:51.213 : en:Chapter 4
00:26:05.438 : en:Chapter 5
00:31:11.035 : en:Chapter 6
00:40:52.491 : en:Chapter 7
00:45:06.328 : en:Chapter 8
00:51:07.314 : en:Chapter 9
00:58:31.216 : en:Chapter 10
01:12:01.191 : en:Chapter 11
01:20:23.276 : en:Chapter 12
01:24:04.789 : en:Chapter 13
01:30:39.183 : en:Chapter 14
01:37:14.662 : en:Chapter 15
01:46:23.335 : en:Chapter 16

Пила 4 / Saw IV (2007)

«Это западня»- Информация
Название: Пила 4
Оригинальное название: Saw IV
Год выхода: 2007
Жанр: Ужасы, детектив
Режиссер: Даррен Линн Боусман
Сценарий: Патрик Мелтон, Маркус Данстэн, Томас Х. Фентон
Продюсер: Марк Бёрг, Грегг Хоффман, Орен Каулз
В ролях: Тобин Белл, Костас Мэндилор, Скотт Гордон-Паттерсон, Бетси Расселл, Лайрик Бент, Афина Карканис, Луис Феррейра, Саймон Рейнольдс, Донни Уолберг, Энгус МакФадьен
--Сюжет:
Получив известие об убийстве детектива Кэрри, два опытных сотрудника ФБР, агент Стрэм и агент Перез, прибывают в полицейский участок, чтобы помочь старому детективу Хоффману проанализировать последнюю ужасную игру Пилы и соединить все части головоломки.
Однако, когда капитан Ригг, последний полицейский, нетронутый Пилой, оказывается похищен и вовлечен в чудовищную игру маньяка, у офицера остается лишь девяносто минут, чтобы обнаружить ряд взаимосвязанных ловушек… или оказаться перед лицом их беспощадных последствий.
В то время, как Ригга по всему городу преследуют следы трупов, детектив Хоффман и ФБР обнаруживают глубоко спрятанные ключи к разгадке, которые приводят их назад к бывшей жене Пилы — Джил.
- - Страна: США, Канада
Продолжительность: 01:35:31
-- Файл
Кодек: MPEG4/ISO/AVC H.264
Формат: MKV
Качество: BDRip-AVC 60 fps
Видео: 1024x576 (16:9) | 59.940 fps | 5.2 Мбит/сек
Аудио: AC3 | 5.1 | 48 kHz | 640 kbps | 16 bit | Дубляж + MVO на реж. вставки |
Субтитры: Русские (Полные), английские (Полные)

MedifInfo

Video
ID : 1
Format : AVC
Format/Info : Advanced Video Codec
Format profile : High@L4.1
Format settings, CABAC : Yes
Format settings, ReFrames : 4 frames
Codec ID : V_MPEG4/ISO/AVC
Duration : 1h 35mn
Bit rate : 5 280 Kbps
Width : 1 024 pixels
Height : 576 pixels
Display aspect ratio : 16:9
Frame rate : 59.940 fps
Color space : YUV
Chroma subsampling : 4:2:0
Bit depth : 8 bits
Scan type : Progressive
Bits/(Pixel*Frame) : 0.149
Stream size : 3.43 GiB (87%)
Title : Tiberiumsun69
Writing library : x264 core 146 r2538 121396c
Encoding settings : cabac=1 / ref=3 / deblock=1:0:0 / analyse=0x3:0x113 / me=umh / subme=9 / psy=1 / psy_rd=1.00:0.10 / mixed_ref=1 / me_range=32 / chroma_me=1 / trellis=2 / 8x8dct=1 / cqm=0 / deadzone=21,11 / fast_pskip=0 / chroma_qp_offset=-3 / threads=12 / lookahead_threads=3 / sliced_threads=0 / nr=0 / decimate=1 / interlaced=0 / bluray_compat=0 / constrained_intra=0 / bframes=16 / b_pyramid=2 / b_adapt=2 / b_bias=0 / direct=3 / weightb=1 / open_gop=0 / weightp=2 / keyint=600 / keyint_min=59 / scenecut=40 / intra_refresh=0 / rc_lookahead=40 / rc=2pass / mbtree=0 / bitrate=5280 / ratetol=1.0 / qcomp=0.60 / qpmin=0 / qpmax=69 / qpstep=4 / cplxblur=20.0 / qblur=0.5 / vbv_maxrate=14000 / vbv_bufsize=14000 / nal_hrd=none / filler=0 / ip_ratio=1.40 / pb_ratio=1.30 / aq=1:1.00
Language : English
Default : Yes
Forced : No
Audio
ID : 2
Format : AC-3
Format/Info : Audio Coding 3
Mode extension : CM (complete main)
Codec ID : A_AC3
Duration : 1h 35mn
Bit rate mode : Constant
Bit rate : 640 Kbps
Channel(s) : 6 channels
Channel positions : Front: L C R, Side: L R, LFE
Sampling rate : 48.0 KHz
Bit depth : 16 bits
Compression mode : Lossy
Stream size : 437 MiB (11%)
Title : Дубляж + MVO на реж. вставки
Language : Russian
Default : No
Forced : No
Text #1
ID : 3
Format : UTF-8
Codec ID : S_TEXT/UTF8
Codec ID/Info : UTF-8 Plain Text
Title : Полные
Language : Russian
Default : No
Forced : No
Text #2
ID : 4
Format : UTF-8
Codec ID : S_TEXT/UTF8
Codec ID/Info : UTF-8 Plain Text
Title : Полные
Language : English
Default : No
Forced : No
Menu
00:00:00.000 : en:Chapter 1
00:06:09.410 : en:Chapter 2
00:09:35.199 : en:Chapter 3
00:15:11.911 : en:Chapter 4
00:19:04.101 : en:Chapter 5
00:25:55.303 : en:Chapter 6
00:32:19.062 : en:Chapter 7
00:39:46.634 : en:Chapter 8
00:43:11.880 : en:Chapter 9
00:46:39.463 : en:Chapter 10
00:50:52.799 : en:Chapter 11
00:52:39.739 : en:Chapter 12
01:01:20.718 : en:Chapter 13
01:06:18.516 : en:Chapter 14
01:17:38.362 : en:Chapter 15
01:24:57.217 : en:Chapter 16

Пила 5 / Saw V (2008)

«Ты не поверишь, чем это закончится»- Информация
Название: Пила 5
Оригинальное название: Saw V
Год выхода: 2008
Жанр: Ужасы, детектив
Режиссер: Дэвид Хэкл
Сценарий: Патрик Мелтон, Маркус Данстэн
Продюсер: Марк Бёрг, Грегг Хоффман, Орен Каулз
В ролях: Тобин Белл, Костас Мэндилор, Скотт Гордон-Паттерсон, Бетси Расселл, Джули Бенц, Миган Гуд, Марк Ролстон, Карло Рота, Грег Брайк, Лаура Гордон, Джорис Джарски, Майк Баттерс, Ал Сапиенца, Майк Рилба, Джефф Пастил, Дана Сорман, Саманта Лемоул
--Сюжет:
Один из последователей маньяка-убийцы Пилы, Марк Хоффман, следуя заветам своего кровавого гуру, готовит очередную смертельную головоломку. Тем временем агент Страм начинает догадываться о связи Хоффмана с Пилой, и Хоффману приходится выйти на новую охоту, чтобы уничтожить все ниточки, ведущие к нему. Пятерых незнакомым друг с другом людей уже ждет жестокий урок командной игры на выживание — еще больше крови, еще изощреннее ловушки… Страм идет по следам Хоффмана, пытаясь докопаться до причин, по которым он присоединился к Пиле. Их ждет встреча лицом к лицу в преддверии неотвратимого и непредсказуемого финала.- - Страна: США, Канада
Продолжительность: 01:35:03
-- Файл
Кодек: MPEG4/ISO/AVC H.264
Формат: MKV
Качество: BDRip-AVC 60 fps
Видео: 1024x576 (16:9) | 59.940 fps | 5.3 Мбит/сек
Аудио: AC3 | 5.1 | 48 kHz | 640 kbps | 16 bit | Дубляж + MVO на реж. вставки |
Субтитры: русские (Форсированные), русские (Полные), английские (Полные)

MedifInfo

Video
ID : 1
Format : AVC
Format/Info : Advanced Video Codec
Format profile : High@L4.1
Format settings, CABAC : Yes
Format settings, ReFrames : 4 frames
Codec ID : V_MPEG4/ISO/AVC
Duration : 1h 35mn
Bit rate : 5 300 Kbps
Width : 1 024 pixels
Height : 576 pixels
Display aspect ratio : 16:9
Frame rate : 59.940 fps
Color space : YUV
Chroma subsampling : 4:2:0
Bit depth : 8 bits
Scan type : Progressive
Bits/(Pixel*Frame) : 0.150
Stream size : 3.44 GiB (87%)
Title : Tiberiumsun69
Writing library : x264 core 146 r2538 121396c
Encoding settings : cabac=1 / ref=3 / deblock=1:0:0 / analyse=0x3:0x113 / me=umh / subme=9 / psy=1 / psy_rd=1.00:0.10 / mixed_ref=1 / me_range=32 / chroma_me=1 / trellis=2 / 8x8dct=1 / cqm=0 / deadzone=21,11 / fast_pskip=0 / chroma_qp_offset=-3 / threads=12 / lookahead_threads=3 / sliced_threads=0 / nr=0 / decimate=1 / interlaced=0 / bluray_compat=0 / constrained_intra=0 / bframes=16 / b_pyramid=2 / b_adapt=2 / b_bias=0 / direct=3 / weightb=1 / open_gop=0 / weightp=2 / keyint=600 / keyint_min=59 / scenecut=40 / intra_refresh=0 / rc_lookahead=40 / rc=2pass / mbtree=0 / bitrate=5300 / ratetol=1.0 / qcomp=0.60 / qpmin=0 / qpmax=69 / qpstep=4 / cplxblur=20.0 / qblur=0.5 / vbv_maxrate=14000 / vbv_bufsize=14000 / nal_hrd=none / filler=0 / ip_ratio=1.40 / pb_ratio=1.30 / aq=1:1.00
Language : English
Default : Yes
Forced : No
Audio
ID : 2
Format : AC-3
Format/Info : Audio Coding 3
Mode extension : CM (complete main)
Codec ID : A_AC3
Duration : 1h 35mn
Bit rate mode : Constant
Bit rate : 640 Kbps
Channel(s) : 6 channels
Channel positions : Front: L C R, Side: L R, LFE
Sampling rate : 48.0 KHz
Bit depth : 16 bits
Compression mode : Lossy
Stream size : 435 MiB (11%)
Title : Дубляж + Субтитры на реж. вставки
Language : Russian
Default : Yes
Forced : No
Text #1
ID : 3
Format : UTF-8
Codec ID : S_TEXT/UTF8
Codec ID/Info : UTF-8 Plain Text
Title : Форсированные
Language : Russian
Default : Yes
Forced : No
Text #2
ID : 4
Format : UTF-8
Codec ID : S_TEXT/UTF8
Codec ID/Info : UTF-8 Plain Text
Title : Полные
Language : Russian
Default : No
Forced : No
Text #3
ID : 5
Format : UTF-8
Codec ID : S_TEXT/UTF8
Codec ID/Info : UTF-8 Plain Text
Title : Полные
Language : English
Default : No
Forced : No
Menu
00:00:00.000 : en:Chapter 1
00:06:10.787 : en:Chapter 2
00:12:15.484 : en:Chapter 3
00:15:25.716 : en:Chapter 4
00:22:02.446 : en:Chapter 5
00:28:42.721 : en:Chapter 6
00:34:33.446 : en:Chapter 7
00:36:41.115 : en:Chapter 8
00:42:15.533 : en:Chapter 9
00:49:40.686 : en:Chapter 10
00:51:51.733 : en:Chapter 11
01:00:23.036 : en:Chapter 12
01:05:29.258 : en:Chapter 13
01:11:33.038 : en:Chapter 14
01:17:09.458 : en:Chapter 15
01:25:30.708 : en:Chapter 16

Пила 6 / Saw VI (2009)

«6 заданий, 6 попыток, 6 вариантов»- Информация
Название: Пила 6
Оригинальное название: Saw VI
Год выхода: 2009
Жанр: Ужасы, детектив
Режиссер: Кевин Гротерт
Сценарий: Патрик Мелтон, Маркус Данстэн
Продюсер: Марк Бёрг, Грегг Хоффман, Орен Каулз
В ролях: Тобин Белл, Костас Мэндилор, Марк Ролстон, Бетси Расселл, Шоуни Смит, Питер Аутербридж, Афина Карканис, Саманта Лемоул, Танедра Ховард, Марти Моро
--Сюжет:
Специальный агент Страм мертв и нет никаких сомнений в том, что детектив Хоффман является продолжателем дела Конструктора. Но когда ФБР садится ему на след, он вынужден вновь начать Игру, наконец-то расставляющую все точки над i в грандиозном плане Конструктора.- - Страна: Канада, США, Великобритания, Австралия
Продолжительность: 01:31:39
-- Файл
Кодек: MPEG4/ISO/AVC H.264
Формат: MKV
Качество: BDRip-AVC 60 fps
Видео: 1024x576 (16:9) | 59.940 fps | 5.3 Мбит/сек
Аудио: AC3 | 5.1 | 48 kHz | 448 kbps | 16 bit | Дубляж + MVO на реж. вставки |
Субтитры: русские (Полные), английские (Полные)

MedifInfo

Video
ID : 1
Format : AVC
Format/Info : Advanced Video Codec
Format profile : High@L4.1
Format settings, CABAC : Yes
Format settings, ReFrames : 4 frames
Codec ID : V_MPEG4/ISO/AVC
Duration : 1h 31mn
Bit rate : 5 300 Kbps
Width : 1 024 pixels
Height : 576 pixels
Display aspect ratio : 16:9
Frame rate : 59.940 fps
Color space : YUV
Chroma subsampling : 4:2:0
Bit depth : 8 bits
Scan type : Progressive
Bits/(Pixel*Frame) : 0.150
Stream size : 3.32 GiB (90%)
Title : Tiberiumsun69
Writing library : x264 core 146 r2538 121396c
Encoding settings : cabac=1 / ref=3 / deblock=1:0:0 / analyse=0x3:0x113 / me=umh / subme=9 / psy=1 / psy_rd=1.00:0.10 / mixed_ref=1 / me_range=32 / chroma_me=1 / trellis=2 / 8x8dct=1 / cqm=0 / deadzone=21,11 / fast_pskip=0 / chroma_qp_offset=-3 / threads=12 / lookahead_threads=3 / sliced_threads=0 / nr=0 / decimate=1 / interlaced=0 / bluray_compat=0 / constrained_intra=0 / bframes=16 / b_pyramid=2 / b_adapt=2 / b_bias=0 / direct=3 / weightb=1 / open_gop=0 / weightp=2 / keyint=600 / keyint_min=59 / scenecut=40 / intra_refresh=0 / rc_lookahead=40 / rc=2pass / mbtree=0 / bitrate=5300 / ratetol=1.0 / qcomp=0.60 / qpmin=0 / qpmax=69 / qpstep=4 / cplxblur=20.0 / qblur=0.5 / vbv_maxrate=14000 / vbv_bufsize=14000 / nal_hrd=none / filler=0 / ip_ratio=1.40 / pb_ratio=1.30 / aq=1:1.00
Language : English
Default : Yes
Forced : No
Audio
ID : 2
Format : AC-3
Format/Info : Audio Coding 3
Mode extension : CM (complete main)
Codec ID : A_AC3
Duration : 1h 31mn
Bit rate mode : Constant
Bit rate : 448 Kbps
Channel(s) : 6 channels
Channel positions : Front: L C R, Side: L R, LFE
Sampling rate : 48.0 KHz
Bit depth : 16 bits
Compression mode : Lossy
Stream size : 294 MiB (8%)
Title : Дубляж + AVO на реж. вставки
Language : Russian
Default : Yes
Forced : No
Text #1
ID : 3
Format : UTF-8
Codec ID : S_TEXT/UTF8
Codec ID/Info : UTF-8 Plain Text
Title : Полные
Language : Russian
Default : No
Forced : No
Text #2
ID : 4
Format : UTF-8
Codec ID : S_TEXT/UTF8
Codec ID/Info : UTF-8 Plain Text
Title : Полные
Language : English
Default : No
Forced : No
Menu
00:00:00.000 : en:Chapter 1
00:06:05.990 : en:Chapter 2
00:12:24.785 : en:Chapter 3
00:16:58.767 : en:Chapter 4
00:20:32.689 : en:Chapter 5
00:24:28.175 : en:Chapter 6
00:33:17.829 : en:Chapter 7
00:36:51.458 : en:Chapter 8
00:41:14.263 : en:Chapter 9
00:48:13.640 : en:Chapter 10
00:52:27.310 : en:Chapter 11
00:55:03.049 : en:Chapter 12
01:01:20.259 : en:Chapter 13
01:08:12.421 : en:Chapter 14
01:15:27.814 : en:Chapter 15
01:20:51.054 : en:Chapter 16

Пила 3D / Saw 3D (2010)

«Ловушки оживают»- Информация
Название: Пила 3D
Оригинальное название: Saw 3D
Год выхода: 2010
Жанр: Ужасы, детектив
Режиссер: Кевин Гротерт
Сценарий: Патрик Мелтон, Маркус Данстэн
Продюсер: Марк Бёрг, Грегг Хоффман, Орен Каулз
В ролях: Костас Мэндилор, Шон Патрик Флэнери, Тобин Белл, Кэри Элвис, Бетси Расселл, Дин Армстронг, Чэд Донелла, Джина Холден, Лоуренс Энтони, Наоми Сникус.
--Сюжет:
Жертвы Пилы, выжившие в предыдущих испытаниях, обращаются за психологической помощью к товарищу по несчастью Бобби Дагену. Но когда его собственные темные тайны всплывают на свет, развязывается новая волна террора.- - Страна: США
Продолжительность: 01:30:11
-- Файл
Кодек: MPEG4/ISO/AVC H.264
Формат: MKV
Качество: BDRip-AVC 60 fps
Видео: 1024x576 (16:9) | 59.940 fps | 5.3 Мбит/сек
Аудио: AC3 | 5.1 | 48 kHz | 640 kbps | 16 bit | Дубляж |
Субтитры: русские (Полные), английские (Полные)

MedifInfo

Video
ID : 1
Format : AVC
Format/Info : Advanced Video Codec
Format profile : High@L4.1
Format settings, CABAC : Yes
Format settings, ReFrames : 4 frames
Codec ID : V_MPEG4/ISO/AVC
Duration : 1h 30mn
Bit rate : 5 300 Kbps
Width : 1 024 pixels
Height : 576 pixels
Display aspect ratio : 16:9
Frame rate : 59.940 fps
Color space : YUV
Chroma subsampling : 4:2:0
Bit depth : 8 bits
Scan type : Progressive
Bits/(Pixel*Frame) : 0.150
Stream size : 3.26 GiB (87%)
Title : Tiberiumsun69
Writing library : x264 core 146 r2538 121396c
Encoding settings : cabac=1 / ref=3 / deblock=1:0:0 / analyse=0x3:0x113 / me=umh / subme=9 / psy=1 / psy_rd=1.00:0.10 / mixed_ref=1 / me_range=32 / chroma_me=1 / trellis=2 / 8x8dct=1 / cqm=0 / deadzone=21,11 / fast_pskip=0 / chroma_qp_offset=-3 / threads=12 / lookahead_threads=3 / sliced_threads=0 / nr=0 / decimate=1 / interlaced=0 / bluray_compat=0 / constrained_intra=0 / bframes=16 / b_pyramid=2 / b_adapt=2 / b_bias=0 / direct=3 / weightb=1 / open_gop=0 / weightp=2 / keyint=600 / keyint_min=59 / scenecut=40 / intra_refresh=0 / rc_lookahead=40 / rc=2pass / mbtree=0 / bitrate=5300 / ratetol=1.0 / qcomp=0.60 / qpmin=0 / qpmax=69 / qpstep=4 / cplxblur=20.0 / qblur=0.5 / vbv_maxrate=14000 / vbv_bufsize=14000 / nal_hrd=none / filler=0 / ip_ratio=1.40 / pb_ratio=1.30 / aq=1:1.00
Language : English
Default : Yes
Forced : No
Audio
ID : 2
Format : AC-3
Format/Info : Audio Coding 3
Mode extension : CM (complete main)
Codec ID : A_AC3
Duration : 1h 30mn
Bit rate mode : Constant
Bit rate : 640 Kbps
Channel(s) : 6 channels
Channel positions : Front: L C R, Side: L R, LFE
Sampling rate : 48.0 KHz
Bit depth : 16 bits
Compression mode : Lossy
Stream size : 413 MiB (11%)
Title : Дубляж
Language : Russian
Default : Yes
Forced : No
Text #1
ID : 3
Format : UTF-8
Codec ID : S_TEXT/UTF8
Codec ID/Info : UTF-8 Plain Text
Title : Полные
Language : Russian
Default : No
Forced : No
Text #2
ID : 4
Format : UTF-8
Codec ID : S_TEXT/UTF8
Codec ID/Info : UTF-8 Plain Text
Title : Полные
Language : English
Default : No
Forced : No
Menu
00:00:00.000 : en:Chapter 1
00:05:13.479 : en:Chapter 2
00:12:58.652 : en:Chapter 3
00:17:16.785 : en:Chapter 4
00:22:07.743 : en:Chapter 5
00:27:29.230 : en:Chapter 6
00:36:06.956 : en:Chapter 7
00:43:04.206 : en:Chapter 8
00:47:54.413 : en:Chapter 9
00:52:00.826 : en:Chapter 10
00:57:09.926 : en:Chapter 11
01:03:09.076 : en:Chapter 12
01:10:28.890 : en:Chapter 13
01:14:13.573 : en:Chapter 14
01:19:01.153 : en:Chapter 15
01:23:47.188 : en:Chapter 16

[Цитировать]
Альберт

Ого!!! Однозначно в коллекцию!!! Спасибо друг!!!

[Цитировать]
Fragrance

Класс спасибо !

[Цитировать]
rembo1410

все будто и хорошо но битрейт слабоват 4.3-4.8 маловато!а так спасибо за труд!

[Цитировать]
Kryl

4822все будто и хорошо но битрейт слабоват 4.3-4.8 маловато!а так спасибо за труд!
Это поделка другой релиз группы , мы такое не делаем )

[Цитировать]
envy

4822все будто и хорошо но битрейт слабоват 4.3-4.8 маловато!
С битрейтом всё в порядке.))
Для AVC этого достаточно.

[Цитировать]
Enzelad

Коллекция классная.Но с таким переводом... .Дубляж и ужастик- Тошнит
 
Показать сообщения:    

Текущее время: 18-Окт 05:07

Часовой пояс: UTC + 3


Вы не можете начинать темы
Вы не можете отвечать на сообщения
Вы не можете редактировать свои сообщения
Вы не можете удалять свои сообщения
Вы не можете голосовать в опросах
Вы не можете прикреплять файлы к сообщениям
Вы не можете скачивать файлы