[Цитировать]
Kryl

«Пиковая дама, приди»- Информация о фильме
Название: Пиковая дама: Черный обряд
Год выхода: 2015
Жанр: Ужасы
Режиссер: Святослав Подгаевский
Сценарий: Святослав Подгаевский
Продюсер: Георгий Малков, Владимир Поляков, Даниил Махорт
В ролях: Алина Бабак, Игорь Хрипунов, Владимир Селезнев, Валерия Дмитриева, Сергей Походаев, Евгения Лоза, Валентин Садики, Мария Фомина, Максим Стоянов, Наталья Домерецкая
--О фильме:
С древних времен считается, что любое зеркало может стать порталом в мир мертвых. Одним из старейших мистических ритуалов с зеркалом является обряд вызова Пиковой Дамы. Четверо подростков в шутку решают призвать ее, но даже не подозревают, на какие ужасы они обрекли себя и своих близких. Теперь мстительный призрак не остановится, пока не получит их души.- - Страна: Россия
Продолжительность: 01:32:50
-- Файл
Кодек: MPEG4/ISO/AVC H.264
Формат: MKV
Качество: WEBRip 720p
Видео: 1280 x 720 (1.778) | 60.000 fps | 5.7 Мбит/сек
Аудио: AC-3 | 5.1 | 48 kHz | 384 kbps | 16 bit | Оригинальное [iTunes] |

MedifInfo

Видео
Идентификатор : 1
Формат : AVC
Формат/Информация : Advanced Video Codec
Профиль формата : High@L4.1
Параметр CABAC формата : Да
Параметр ReFrames формата : 3 кадра
Параметр GOP формата : M=3, N=60
Идентификатор кодека : V_MPEG4/ISO/AVC
Продолжительность : 1 ч. 32 м.
Вид битрейта : Переменный
Битрейт : 5779 Кбит/сек
Максимальный битрейт : 6000 Кбит/сек
Ширина : 1280 пикселей
Высота : 720 пикселей
Соотношение сторон : 16:9
Режим частоты кадров : Постоянный
Частота кадров : 60,000 кадров/сек
Стандарт вещания : PAL
Цветовое пространство : YUV
Субдискретизация насыщенности : 4:2:0
Битовая глубина : 8 бит
Тип развёртки : Прогрессивная
Бит/(Пиксели*Кадры) : 0.105
Размер потока : 3,75 Гбайт (92%)
Заголовок : www.60-fps.org
Язык : English
Default : Да
Forced : Нет
Основные цвета : BT.709
Характеристики трансфера : BT.709
Коэффициенты матрицы : BT.709
colour_range : Limited
Аудио
Идентификатор : 2
Формат : AC-3
Формат/Информация : Audio Coding 3
Расширение режима : CM (complete main)
Параметр Endianness формата : Big
Идентификатор кодека : A_AC3
Продолжительность : 1 ч. 32 м.
Вид битрейта : Постоянный
Битрейт : 384 Кбит/сек
Каналы : 6 каналов
Расположение каналов : Front: L C R, Side: L R, LFE
Частота : 48,0 КГц
Битовая глубина : 16 бит
Метод сжатия : С потерями
Размер потока : 255 Мбайт (6%)
Заголовок : AC3 iTunes
Язык : Russian
Default : Да
Forced : Нет
Меню
00:00:00.000 : en:Глава 1
00:05:31.000 : en:Глава 2
00:10:55.000 : en:Глава 3
00:16:23.000 : en:Глава 4
00:21:30.000 : en:Глава 5
00:26:59.000 : en:Глава 6
00:32:14.000 : en:Глава 7
00:37:45.000 : en:Глава 8
00:44:11.000 : en:Глава 9
00:50:48.000 : en:Глава 10
00:56:36.000 : en:Глава 11
01:02:21.000 : en:Глава 12
01:07:45.000 : en:Глава 13
01:12:59.000 : en:Глава 14
01:18:30.000 : en:Глава 15
01:22:33.000 : en:Глава 16
01:27:18.000 : en:Глава 17

Релиз подготовлен 60 - fps

 
Показать сообщения:    

Текущее время: 24-Май 07:14

Часовой пояс: UTC + 3


Вы не можете начинать темы
Вы не можете отвечать на сообщения
Вы не можете редактировать свои сообщения
Вы не можете удалять свои сообщения
Вы не можете голосовать в опросах
Вы не можете прикреплять файлы к сообщениям
Вы не можете скачивать файлы