[Цитировать]
ZHz

Название: Пейзажи времени
Оригинальное название: TimeScapes: The Movie
Год выпуска: 2012
Жанр: Видовой
Продолжительность: 00:48:21
Перевод: Не требуется (нет диалогов и комментариев)
Режиссер / Телекомпания: Том Лоу / Новая Зеландия, Southwest Light Ltd.--СЭМПЛ
Кодек: AVC
Формат: MKV
Качество: BDRip 720p
Видео: 1280x720, 59.940 fps, 8046 Kbps
Аудио:[музыка] AC3, 2 ch, 48.0 kHz, 192 kbps

MediaInfo

General
Unique ID : 234919519829814097033761617396141941398 (0xB0BBDA911290C1A79FFEA05D74506296)
Complete name : J:\60FPS\TimeScapes\TimeScapes [60FPS by ZHz].mkv
Format : Matroska
Format version : Version 4 / Version 2
File size : 2.84 GiB
Duration : 48mn 21s
Overall bit rate : 8 405 Kbps
Encoded date : UTC 2014-12-04 19:23:14
Writing application : mkvmerge v7.3.0 ('Nouages') 64bit built on Oct 22 2014 18:53:34
Writing library : libebml v1.3.0 + libmatroska v1.4.1
DURATION : 00:48:21.632000000
NUMBER_OF_FRAMES : 90676
NUMBER_OF_BYTES : 69639168
_STATISTICS_WRITING_APP : mkvmerge v7.3.0 ('Nouages') 64bit built on Oct 22 2014 18:53:34
_STATISTICS_WRITING_DATE_UTC : 2014-12-04 19:23:14
_STATISTICS_TAGS : BPS DURATION NUMBER_OF_FRAMES NUMBER_OF_BYTES
Video
ID : 1
Format : AVC
Format/Info : Advanced Video Codec
Format profile : High@L4.1
Format settings, CABAC : Yes
Format settings, ReFrames : 5 frames
Codec ID : V_MPEG4/ISO/AVC
Duration : 48mn 21s
Bit rate : 8 046 Kbps
Width : 1 280 pixels
Height : 720 pixels
Display aspect ratio : 16:9
Frame rate mode : Constant
Frame rate : 59.880 fps
Original frame rate : 59.940 fps
Color space : YUV
Chroma subsampling : 4:2:0
Bit depth : 8 bits
Scan type : Progressive
Bits/(Pixel*Frame) : 0.146
Stream size : 2.72 GiB (96%)
Writing library : x264 core 130 r2273 b3065e6
Encoding settings : cabac=1 / ref=5 / deblock=1:-2:-2 / analyse=0x3:0x112 / me=esa / subme=7 / psy=1 / psy_rd=1.50:0.35 / mixed_ref=1 / me_range=8 / chroma_me=1 / trellis=2 / 8x8dct=1 / cqm=0 / deadzone=21,11 / fast_pskip=1 / chroma_qp_offset=-4 / threads=12 / lookahead_threads=3 / sliced_threads=0 / nr=0 / decimate=1 / interlaced=0 / bluray_compat=0 / constrained_intra=0 / bframes=4 / b_pyramid=2 / b_adapt=2 / b_bias=0 / direct=3 / weightb=1 / open_gop=0 / weightp=2 / keyint=250 / keyint_min=25 / scenecut=40 / intra_refresh=0 / rc_lookahead=50 / rc=crf / mbtree=1 / crf=16.0 / qcomp=0.60 / qpmin=0 / qpmax=69 / qpstep=4 / vbv_maxrate=50000 / vbv_bufsize=50000 / crf_max=0.0 / nal_hrd=none / ip_ratio=1.40 / aq=1:1.00
Language : English
Default : Yes
Forced : No
DURATION : 00:48:21.535000000
NUMBER_OF_FRAMES : 173918
NUMBER_OF_BYTES : 2977601461
_STATISTICS_WRITING_APP : mkvmerge v7.3.0 ('Nouages') 64bit built on Oct 22 2014 18:53:34
_STATISTICS_WRITING_DATE_UTC : 2014-12-04 19:23:14
_STATISTICS_TAGS : BPS DURATION NUMBER_OF_FRAMES NUMBER_OF_BYTES
Audio
ID : 2
Format : AC-3
Format/Info : Audio Coding 3
Mode extension : CM (complete main)
Format settings, Endianness : Big
Codec ID : A_AC3
Duration : 48mn 21s
Bit rate mode : Constant
Bit rate : 192 Kbps
Channel(s) : 2 channels
Channel positions : Front: L R
Sampling rate : 48.0 KHz
Bit depth : 16 bits
Compression mode : Lossy
Stream size : 66.4 MiB (2%)
Title : Музыка
Default : Yes
Forced : No

Скриншоты

[Цитировать]
MAA

Ух ты, за ночь сделали)))) Я удивлен))) Очень рад, что нашел ваш сайт и таких хороших людей.

[Цитировать]
MAA

В контакте вы есть? Надо рекламировать вас

[Цитировать]
ZHz

956Ух ты, за ночь сделали)))) Я удивлен))) Очень рад, что нашел ваш сайт и таких хороших людей.
В контакте вы есть? Надо рекламировать вас
Ну вообще это было готово еще вчера в 22:57. ВК, на сколько я знаю, трекера пока нет

[Цитировать]
MAA

встаньте на раздачу

[Цитировать]
ZHz

да я и не уходил

[Цитировать]
frolox

Раздачи нет(

[Цитировать]
Sydney

На раздачу станьте, люди дорогие!
 
Показать сообщения:    

Текущее время: 20-Окт 02:51

Часовой пояс: UTC + 3


Вы не можете начинать темы
Вы не можете отвечать на сообщения
Вы не можете редактировать свои сообщения
Вы не можете удалять свои сообщения
Вы не можете голосовать в опросах
Вы не можете прикреплять файлы к сообщениям
Вы не можете скачивать файлы