[Цитировать]
Kryl

Пейзажи времени / TimeScapes (2012) BDRip 1080p | 60 fps- Информация
Название: Пейзажи времени
Оригинальное название: TimeScapes
Год выхода: 2012
Жанр: Документальный
Режиссер: Том Лоу
Продюсер: Том Лоу, Карен Абад, Randy Abbott
Страна: Новая Зеландия
Продолжительность: 02:31:40

Сюжет:
В фильме вы увидите пейзажи, людей и дикую природу американского Юго-Запада в замедленной съемке.- Файл
Кодек: MPEG4/ISO/AVC H.264
Формат: MKV
Качество: BDRip 1080p | 60 fps
Видео: 1920 x 1080 (1.778) | 59.940 fps | 53.3 Мбит/сек
Аудио: AC3 | 5.1 | 48 kHz | 448 kbps | 16 bit

MedifInfo

Видео
Идентификатор : 1
Формат : AVC
Формат/Информация : Advanced Video Codec
Профиль формата : High@L4.1
Параметр CABAC формата : Да
Параметр ReFrames формата : 4 кадра
Идентификатор кодека : V_MPEG4/ISO/AVC
Продолжительность : 48 м.
Битрейт : 53,3 Мбит/сек
Номинальный битрейт : 56,1 Мбит/сек
Ширина : 1920 пикселей
Высота : 1080 пикселей
Соотношение сторон : 16:9
Режим частоты кадров : Постоянный
Частота кадров : 59,880 кадров/сек
Частота кадров в оригинале : 59,940 кадров/сек
Цветовое пространство : YUV
Субдискретизация насыщенности : 4:2:0
Битовая глубина : 8 бит
Тип развёртки : Прогрессивная
Бит/(Пиксели*Кадры) : 0.429
Размер потока : 18,2 Гбайт (97%)
Библиотека кодирования : x264 core 130 r2273 b3065e6
Настройки программы : cabac=1 / ref=4 / deblock=1:-3:-3 / analyse=0x3:0x133 / me=esa / subme=10 / psy=1 / psy_rd=1.00:0.00 / mixed_ref=1 / me_range=32 / chroma_me=1 / trellis=2 / 8x8dct=1 / cqm=0 / deadzone=21,11 / fast_pskip=1 / chroma_qp_offset=-2 / threads=12 / lookahead_threads=2 / sliced_threads=0 / nr=0 / decimate=1 / interlaced=0 / bluray_compat=0 / constrained_intra=0 / bframes=8 / b_pyramid=2 / b_adapt=2 / b_bias=0 / direct=3 / weightb=1 / open_gop=0 / weightp=2 / keyint=599 / keyint_min=59 / scenecut=40 / intra_refresh=0 / rc_lookahead=60 / rc=2pass / mbtree=1 / bitrate=55036 / ratetol=1.0 / qcomp=0.60 / qpmin=0 / qpmax=69 / qpstep=4 / cplxblur=20.0 / qblur=0.5 / ip_ratio=1.40 / aq=1:1.00
Язык : English
Default : Нет
Forced : Нет
Аудио
Идентификатор : 2
Формат : AC-3
Формат/Информация : Audio Coding 3
Расширение режима : CM (complete main)
Параметр Endianness формата : Big
Идентификатор кодека : A_AC3
Продолжительность : 48 м.
Вид битрейта : Постоянный
Битрейт : 448 Кбит/сек
Каналы : 6 каналов
Расположение каналов : Front: L C R, Side: L R, LFE
Частота : 48,0 КГц
Битовая глубина : 16 бит
Метод сжатия : С потерями
Размер потока : 157 Мбайт (1%)
Default : Да
Forced : Нет

Релиз подготовлен 60 - fps



Последний раз редактировалось: Kryl (2016-07-24 14:54), всего редактировалось 4 раз(а)

[Цитировать]
mimok

56.1 Mbps это рекорд походу тут.

[Цитировать]
Kryl

Да , давненько его делал .... хотел вообще 60mbps , но уже не помню , почему не стал ..

[Цитировать]
ZHz

481Да , давненько его делал .... хотел вообще 60mbps , но уже не помню , почему не стал ..
ну с 56 mbps не далеко отклонился от замысла

[Цитировать]
seiblokhin

скорости пожалуйста

[Цитировать]
unquaid

есть шанс что раздача ещё будет?

[Цитировать]
Kryl

4760есть шанс что раздача ещё будет?
Завтра встану на раздачу .

[Цитировать]
unquaid

4761
4760есть шанс что раздача ещё будет?
Завтра встану на раздачу .
Спасибо!)
 
Показать сообщения:    

Текущее время: 02-Дек 21:10

Часовой пояс: UTC + 3


Вы не можете начинать темы
Вы не можете отвечать на сообщения
Вы не можете редактировать свои сообщения
Вы не можете удалять свои сообщения
Вы не можете голосовать в опросах
Вы не можете прикреплять файлы к сообщениям
Вы не можете скачивать файлы