Топ Топиков за 24 часа
 
Couple (2016) Full HD 1080p | 60 fps Preppy Girl Threesome Get Three BBCs (2016) HD 1080p | 60 fps SKILLED SLUT LOVES HER JOB (2017) Full HD 1080p | 60 fps HOT BLACK GIRLS CREAMPIED(2017) Full HD 1080p | 60 fps Exciting Rehearsal with Sonya Sweet (2016) Full HD 1080p | 60 fps Natalia Starr (2017) Full HD 1080p | 60 fps Megan Rain (2017) Full HD 1080p | 60 fps DVJ BAZUKA - Sweet Dance (2017) WEBRip 1080p | 60 fps DVJ BAZUKA - Gangsta Shit (2017) WEBRip 1080p | 60 fps Anjelica - You Belong To Me (2012) HD 1080p | 60 fps Study Buddies (2016) HD 1080p | 60 fps Christmas with Nancy A (2016) Full HD 1080p | 60 fps
  1. Стаж:
    3 года 1 месяц
    Сообщений:
    2082
    Пол:
    Мужской
     
    Peyton Coast & Ally Tate (2016) Full HD 1080p | 60 fps- Информация
    Название: Peyton Coast & Ally Tate
    Год выхода: 2016
    Жанр: Hardcore, All Sex
    В ролях: Peyton Coast, Ally Tate
    Продолжительность: 00:32:20
    - Файл
    Кодек: MPEG4/ISO/AVC/H.264
    Формат: MKV
    Качество: FULL HD 1080p | 60 fps
    Видео: 1920 x 1012 (1.897) | 59.940 fps | 18.1 Мбит/сек
    Аудио: AAC | 2.0 | 48.0 kHz | 113 kbps | 16 bit

    MediaInfo

    Видео
    Идентификатор : 1
    Формат : AVC
    Формат/Информация : Advanced Video Codec
    Профиль формата : Baseline@L3.1
    Параметр CABAC формата : Нет
    Параметр ReFrames формата : 2 кадра
    Идентификатор кодека : avc1
    Идентификатор кодека/Информация : Advanced Video Coding
    Продолжительность : 32 м.
    Битрейт : 18,1 Мбит/сек
    Ширина : 1920 пикселей
    Высота : 1012 пикселей
    Соотношение сторон : 1,897
    Соотношение сторон в оригинале : 1,896
    Режим частоты кадров : Постоянный
    Частота кадров : 59,940 кадров/сек
    Цветовое пространство : YUV
    Субдискретизация насыщенности : 4:2:0
    Битовая глубина : 8 бит
    Тип развёртки : Прогрессивная
    Бит/(Пиксели*Кадры) : 0.155
    Размер потока : 4,09 Гбайт (99%)
    Библиотека кодирования : x264 core 142 r2431 a5831aa
    Настройки программы : cabac=0 / ref=2 / deblock=1:0:0 / analyse=0x1:0x111 / me=hex / subme=6 / psy=1 / psy_rd=1.00:0.00 / mixed_ref=1 / me_range=16 / chroma_me=1 / trellis=1 / 8x8dct=0 / cqm=0 / deadzone=21,11 / fast_pskip=1 / chroma_qp_offset=-2 / threads=2 / lookahead_threads=1 / sliced_threads=0 / nr=0 / decimate=1 / interlaced=0 / bluray_compat=0 / constrained_intra=0 / bframes=0 / weightp=0 / keyint=250 / keyint_min=25 / scenecut=40 / intra_refresh=0 / rc_lookahead=30 / rc=crf / mbtree=1 / crf=18.0 / qcomp=0.60 / qpmin=0 / qpmax=69 / qpstep=4 / ip_ratio=1.40 / aq=1:1.00
    Аудио
    Идентификатор : 2
    Формат : AAC
    Формат/Информация : Advanced Audio Codec
    Профиль формата : LC
    Идентификатор кодека : 40
    Продолжительность : 32 м.
    Duration_LastFrame : 21 мс.
    Вид битрейта : Постоянный
    Битрейт : 113 Кбит/сек
    Каналы : 2 канала
    Расположение каналов : Front: L R
    Частота : 48,0 КГц
    Метод сжатия : С потерями
    Размер потока : 26,2 Мбайт (1%)

    Скриншоты

    Релиз подготовлен 60 - fps



Вы не можете начинать темы
Вы не можете отвечать на сообщения
Вы не можете редактировать свои сообщения
Вы не можете удалять свои сообщения
Вы не можете голосовать в опросах
Вы не можете прикреплять файлы к сообщениям
Вы не можете скачивать файлы