VIP

  1. Longevity:
    7 years
    Posts:
    2413
    Gender:
    Male
    «В плену будущего. В плену прошлого»- Информация
    Название: Петля времени
    Оригинальное название: Looper
    Год выхода: 2012
    Жанр: Боевик, Фантастика, Триллер
    Режиссер: Райан Джонсон
    Сценарий: Райан Джонсон
    Продюсер: Рэм Бергман, Джеймс Д. Штерн, Кристофер С. Чен
    В ролях: Джозеф Гордон-Левитт, Брюс Уиллис, Эмили Блант, Джефф Дэниелс, Ной Сеган, Пирс Гэнон, Пол Дано, Пайпер Перабо, Квинг Ксу, Трейси Томс
    --Сюжет:
    В недалеком будущем, где стали возможны путешествия во времени, некая корпорация убирает нежелательных людей, отправляя их в прошлое. Задача принимающей стороны — убить жертву, стерев тем самым несчастного из истории.
    - Страна: США, Китай
    Продолжительность: 01:58:53

    Файл
    Кодек: MPEG4/ISO/AVC/H.264
    Формат: MKV
    Качество: BDRip 1080p | 60 fps
    Видео: 1920 x 816 (2.353) | 59.940 fps | 20.0 Мбит/сек
    Аудио 1: AC3 | 5.1 | 48 kHz | 448 kbps | 16 bit | Дубляж |
    Аудио 2: AC3 | 5.1 | 48 kHz | 448 kbps | 16 bit | Авторский одноголосый закадровый - Л.Володарский |
    Аудио 3: AC3 | 5.1 | 48 kHz | 448 kbps | 16 bit | Профессиональный одноголосый закадровый - А.Дасевич |
    Аудио 4: AC3 | 5.1 | 48 kHz | 448 kbps | 16 bit | Eng |
    Субтитры: Русский, английский

    MedifInfo

    Видео
    Идентификатор : 1
    Формат : AVC
    Формат/Информация : Advanced Video Codec
    Профиль формата : [email protected]
    Параметр CABAC формата : Да
    Параметр ReFrames формата : 5 кадров
    Идентификатор кодека : V_MPEG4/ISO/AVC
    Продолжительность : 1 ч. 58 м.
    Битрейт : 20,0 Мбит/сек
    Ширина : 1920 пикселей
    Высота : 816 пикселей
    Соотношение сторон : 2,35:1
    Режим частоты кадров : Постоянный
    Частота кадров : 59,880 кадров/сек
    Частота кадров в оригинале : 59,940 кадров/сек
    Цветовое пространство : YUV
    Субдискретизация насыщенности : 4:2:0
    Битовая глубина : 8 бит
    Тип развёртки : Прогрессивная
    Бит/(Пиксели*Кадры) : 0.213
    Размер потока : 16,2 Гбайт (90%)
    Заголовок : www.60-fps.org
    Библиотека кодирования : x264 core 148 r2744 b97ae06
    Настройки программы : cabac=1 / ref=5 / deblock=1:-3:-3 / analyse=0x3:0x113 / me=umh / subme=8 / psy=1 / psy_rd=1.00:0.25 / mixed_ref=1 / me_range=32 / chroma_me=1 / trellis=1 / 8x8dct=1 / cqm=0 / deadzone=6,6 / fast_pskip=1 / chroma_qp_offset=-4 / threads=12 / lookahead_threads=2 / sliced_threads=0 / nr=0 / decimate=0 / interlaced=0 / bluray_compat=0 / constrained_intra=0 / bframes=3 / b_pyramid=2 / b_adapt=1 / b_bias=0 / direct=3 / weightb=1 / open_gop=0 / weightp=2 / keyint=599 / keyint_min=59 / scenecut=40 / intra_refresh=0 / rc_lookahead=50 / rc=2pass / mbtree=1 / bitrate=19999 / ratetol=1.0 / qcomp=0.80 / qpmin=0 / qpmax=69 / qpstep=4 / cplxblur=20.0 / qblur=0.5 / vbv_maxrate=62500 / vbv_bufsize=78125 / nal_hrd=none / filler=0 / ip_ratio=1.10 / aq=1:0.50
    Default : Да
    Forced : Нет
    Аудио #1
    Идентификатор : 2
    Формат : AC-3
    Формат/Информация : Audio Coding 3
    Расширение режима : CM (complete main)
    Параметр Endianness формата : Big
    Идентификатор кодека : A_AC3
    Продолжительность : 1 ч. 58 м.
    Вид битрейта : Постоянный
    Битрейт : 448 Кбит/сек
    Каналы : 6 каналов
    Расположение каналов : Front: L C R, Side: L R, LFE
    Частота : 48,0 КГц
    Битовая глубина : 16 бит
    Метод сжатия : С потерями
    Размер потока : 381 Мбайт (2%)
    Заголовок : Дубляж
    Язык : Russian
    Default : Да
    Forced : Нет
    Аудио #2
    Идентификатор : 3
    Формат : AC-3
    Формат/Информация : Audio Coding 3
    Расширение режима : CM (complete main)
    Параметр Endianness формата : Big
    Идентификатор кодека : A_AC3
    Продолжительность : 1 ч. 58 м.
    Вид битрейта : Постоянный
    Битрейт : 448 Кбит/сек
    Каналы : 6 каналов
    Расположение каналов : Front: L C R, Side: L R, LFE
    Частота : 48,0 КГц
    Битовая глубина : 16 бит
    Метод сжатия : С потерями
    Размер потока : 381 Мбайт (2%)
    Заголовок : Л.Володарский
    Язык : Russian
    Default : Нет
    Forced : Нет
    Аудио #3
    Идентификатор : 4
    Формат : AC-3
    Формат/Информация : Audio Coding 3
    Расширение режима : CM (complete main)
    Параметр Endianness формата : Big
    Идентификатор кодека : A_AC3
    Продолжительность : 1 ч. 58 м.
    Вид битрейта : Постоянный
    Битрейт : 448 Кбит/сек
    Каналы : 6 каналов
    Расположение каналов : Front: L C R, Side: L R, LFE
    Частота : 48,0 КГц
    Битовая глубина : 16 бит
    Метод сжатия : С потерями
    Размер потока : 381 Мбайт (2%)
    Заголовок : А.Дасевич
    Язык : Russian
    Default : Нет
    Forced : Нет
    Аудио #4
    Идентификатор : 5
    Формат : AC-3
    Формат/Информация : Audio Coding 3
    Расширение режима : CM (complete main)
    Параметр Endianness формата : Big
    Идентификатор кодека : A_AC3
    Продолжительность : 1 ч. 58 м.
    Вид битрейта : Постоянный
    Битрейт : 448 Кбит/сек
    Каналы : 6 каналов
    Расположение каналов : Front: L C R, Side: L R, LFE
    Частота : 48,0 КГц
    Битовая глубина : 16 бит
    Метод сжатия : С потерями
    Размер потока : 381 Мбайт (2%)
    Заголовок : English
    Язык : English
    Default : Нет
    Forced : Нет
    Текст #1
    Идентификатор : 6
    Формат : UTF-8
    Идентификатор кодека : S_TEXT/UTF8
    Идентификатор кодека/Информация : UTF-8 Plain Text
    Язык : Russian
    Default : Нет
    Forced : Нет
    Текст #2
    Идентификатор : 7
    Формат : UTF-8
    Идентификатор кодека : S_TEXT/UTF8
    Идентификатор кодека/Информация : UTF-8 Plain Text
    Заголовок : Forced
    Язык : English
    Default : Нет
    Forced : Нет
    Текст #3
    Идентификатор : 8
    Формат : UTF-8
    Идентификатор кодека : S_TEXT/UTF8
    Идентификатор кодека/Информация : UTF-8 Plain Text
    Язык : English
    Default : Нет
    Forced : Нет
    Текст #4
    Идентификатор : 9
    Формат : UTF-8
    Идентификатор кодека : S_TEXT/UTF8
    Идентификатор кодека/Информация : UTF-8 Plain Text
    Язык : English
    Default : Нет
    Forced : Нет
    Меню
    00:00:00.000 : en:00:00:00.000
    00:07:27.447 : en:00:07:27.447
    00:13:31.686 : en:00:13:31.686
    00:21:22.490 : en:00:21:22.490
    00:26:48.106 : en:00:26:48.106
    00:31:51.201 : en:00:31:51.201
    00:41:28.403 : en:00:41:28.403
    00:49:33.429 : en:00:49:33.429
    00:54:10.414 : en:00:54:10.414
    01:00:35.006 : en:01:00:35.006
    01:08:09.919 : en:01:08:09.919
    01:15:23.352 : en:01:15:23.352
    01:23:57.741 : en:01:23:57.741
    01:34:25.869 : en:01:34:25.869
    01:41:04.433 : en:01:41:04.433
    01:46:29.383 : en:01:46:29.383
    Фильм сделан по заказу пользователя Талямба

    Release was prepared by 60-fps.org

  2. Longevity:
    4 years 11 months
    Posts:
    110
    Gender:
    Male
    А в 720р будет?
    21-Jun-2017 18:35 (after 12 hours)
  3. Longevity:
    7 years
    Posts:
    2413
    Gender:
    Male
    8010А в 720р будет?
    неее Грущу
    21-Jun-2017 18:47 (after 11 minutes)
  4. Longevity:
    5 years 2 months
    Posts:
    1681
    Gender:
    Male
    Cynep, если закажешь тут: https://60-fps.org/zakaz.php ... Подмигиваю я заказал на фулку... Умник
    21-Jun-2017 21:34 (after 2 hours 47 minutes)
  5. Longevity:
    4 years 11 months
    Posts:
    110
    Gender:
    Male
    8012Cynep, если закажешь тут: https://60-fps.org/zakaz.php ... Подмигиваю я заказал на фулку... Умник
    Спасибо, уже в 1080р посмотрел.
    P.S. Imho, фильм так себе. Роли отрицательных персонажей Брюсу Уиллису вообще мало подходят.
    25-Jun-2017 11:28 (after 3 days)


You cannot post new topics in this forum
You cannot reply to topics in this forum
You cannot edit your posts in this forum
You cannot delete your posts in this forum
You cannot vote in polls in this forum
You cannot attach files in this forum
You cannot download files in this forum