Холодное сердце 2 / Frozen II (2019) BDRip 1080p | 60 fps Камуфляж и шпионаж / Spies in Disguise (2019) BDRip 1080p | 60 fps Вперёд / Onward (2019) BDRip 1080p | 60 fps Человек-паук: Через вселенные / Spider-Man: Into the Spider-Verse (2018) BDRip 1080p | 60 fps Семейка Аддамс / The Addams Family (2019) BDRip 1080p | 60 fps Тролли. Мировой тур / Trolls World Tour (2020) BDRip 1080p | 60 fps ВАЛЛ·И / WALL-E (2008) BDRip-AVC | 60 fps Странные чары / Strange Magic (2015) BDRip 1080p | 60 fps
  1. Longevity:
    6 years
    Posts:
    2419
    Gender:
    Male
    - Информация
    Название: Песнь моря
    Оригинальное название: Song of the Sea
    Год выхода: 2014
    Жанр: Мультфильм, фэнтези, семейный
    Режиссер: Томм Мур
    Сценарий: Уилл Коллинз, Томм Мур
    Продюсер: Клаус Токсвиг Кьяэр, Томм Мур, Пол Янг
    Роли озвучивали: Дэвид Роул, Брендан Глисон, Лиза Хэннигэн, Финола Флэнаган, Люси О’Коннелл, Джон Кенни, Пэт Шорт, Лиам Хурикан
    --Сюжет:
    Невероятная история Бена и его сестренки Сирши. Вместе они пускаются в фантастическое путешествие сквозь исчезающий мир древних легенд и магии, пытаясь вернуться домой.- - Страна: Ирландия, Дания, Бельгия, Люксембург, Франция
    Продолжительность: 01:33:59
    -- Файл
    Кодек: MPEG4/ISO/AVC H.264
    Формат: MKV
    Качество: BDRip 720p (исходник Blu-ray Disc)
    Видео: 1280x690 | 59.940 fps | 4.4 Мбит/сек
    Аудио 1: AC3 | 5.1 | 48 kHz | 384 kbps | 16 bit | Дублированный [iTunes] |
    Аудио 2: AC3 | 5.1 | 48 kHz | 448 kbps | 16 bit | ENG |
    Субтитры: Русские | Полные, Английские | Полные

    MedifInfo

    Video
    ID : 1
    Format : AVC
    Format/Info : Advanced Video Codec
    Format profile : High@L4.1
    Format settings, CABAC : Yes
    Format settings, ReFrames : 9 frames
    Codec ID : V_MPEG4/ISO/AVC
    Duration : 1h 34mn
    Bit rate : 4 412 Kbps
    Width : 1 280 pixels
    Height : 690 pixels
    Display aspect ratio : 1.85:1
    Frame rate mode : Constant
    Frame rate : 59.880 fps
    Original frame rate : 59.940 fps
    Color space : YUV
    Chroma subsampling : 4:2:0
    Bit depth : 8 bits
    Scan type : Progressive
    Bits/(Pixel*Frame) : 0.083
    Stream size : 2.90 GiB (82%)
    Title : Песнь моря.(2014).BDRip.720p.[envy].[60fps]
    Writing library : x264 core 146 r2538 121396c
    Encoding settings : cabac=1 / ref=9 / deblock=1:0:0 / analyse=0x3:0x113 / me=umh / subme=11 / psy=1 / psy_rd=1.00:0.00 / mixed_ref=1 / me_range=24 / chroma_me=1 / trellis=2 / 8x8dct=1 / cqm=0 / deadzone=21,11 / fast_pskip=0 / chroma_qp_offset=-2 / threads=12 / lookahead_threads=1 / sliced_threads=0 / nr=0 / decimate=1 / interlaced=0 / bluray_compat=0 / constrained_intra=0 / bframes=5 / b_pyramid=2 / b_adapt=2 / b_bias=0 / direct=3 / weightb=1 / open_gop=0 / weightp=2 / keyint=250 / keyint_min=25 / scenecut=40 / intra_refresh=0 / rc_lookahead=40 / rc=crf / mbtree=0 / crf=18.0 / qcomp=0.60 / qpmin=0 / qpmax=69 / qpstep=4 / vbv_maxrate=14000 / vbv_bufsize=14000 / crf_max=0.0 / nal_hrd=none / filler=0 / ip_ratio=1.40 / pb_ratio=1.30 / aq=3:1.00
    Language : English
    Default : Yes
    Forced : No
    Audio #1
    ID : 2
    Format : AC-3
    Format/Info : Audio Coding 3
    Mode extension : CM (complete main)
    Format settings, Endianness : Big
    Codec ID : A_AC3
    Duration : 1h 34mn
    Bit rate mode : Constant
    Bit rate : 384 Kbps
    Channel(s) : 6 channels
    Channel positions : Front: L C R, Side: L R, LFE
    Sampling rate : 48.0 KHz
    Compression mode : Lossy
    Stream size : 259 MiB (7%)
    Title : Dub
    Language : Russian
    Default : Yes
    Forced : No
    Audio #2
    ID : 3
    Format : AC-3
    Format/Info : Audio Coding 3
    Mode extension : CM (complete main)
    Format settings, Endianness : Big
    Codec ID : A_AC3
    Duration : 1h 34mn
    Bit rate mode : Constant
    Bit rate : 448 Kbps
    Channel(s) : 6 channels
    Channel positions : Front: L C R, Side: L R, LFE
    Sampling rate : 48.0 KHz
    Compression mode : Lossy
    Stream size : 302 MiB (8%)
    Title : Eng
    Language : English
    Default : No
    Forced : No
    Text #1
    ID : 4
    Format : UTF-8
    Codec ID : S_TEXT/UTF8
    Codec ID/Info : UTF-8 Plain Text
    Title : Rus full
    Language : Russian
    Default : No
    Forced : No
    Text #2
    ID : 5
    Format : UTF-8
    Codec ID : S_TEXT/UTF8
    Codec ID/Info : UTF-8 Plain Text
    Title : Eng full
    Language : English
    Default : No
    Forced : No
    Menu
    00:00:00.000 : :Chapter 01
    00:04:26.057 : :Chapter 02
    00:09:28.943 : :Chapter 03
    00:13:23.761 : :Chapter 04
    00:18:49.586 : :Chapter 05
    00:23:29.741 : :Chapter 06
    00:26:30.338 : :Chapter 07
    00:31:07.156 : :Chapter 08
    00:35:10.399 : :Chapter 09
    00:39:53.307 : :Chapter 10
    00:44:19.114 : :Chapter 11
    00:48:53.055 : :Chapter 12
    00:52:21.346 : :Chapter 13
    00:56:24.672 : :Chapter 14
    00:59:58.094 : :Chapter 15
    01:04:53.222 : :Chapter 16
    01:08:52.461 : :Chapter 17
    01:12:59.708 : :Chapter 18
    01:17:48.288 : :Chapter 19
    01:26:46.993 : :Chapter 20
    01:33:58.841 : :Chapter 21


You cannot post new topics in this forum
You cannot reply to topics in this forum
You cannot edit your posts in this forum
You cannot delete your posts in this forum
You cannot vote in polls in this forum
You cannot attach files in this forum
You cannot download files in this forum