Пес Барбос и необычный кросс (1961) BDRip-AVC | 60 fps- Информация
Название: Пес Барбос и необычный кросс
Год выхода: 1961
Жанр: короткометражка, комедия
Режиссер: Леонид Гайдай
Сценарий: Леонид Гайдай, Степан Олейник
Директор фильма: Л. Кушелевич
В ролях: Евгений Моргунов, Юрий Никулин, Георгий Вицин
--Сюжет:

Что есть главное средство для поддержания мужской дружбы и просто для увлекательного времяпрепровождения? Правильно, это рыбалка. Трус, Балбес и Бывалый решили испытать эту радость жизни на себе, но на свою беду взяли они с собой пса Барбоса…
- Страна: СССР
Продолжительность: 00:10:28

Файл
Кодек: MPEG4/ISO/AVC H.264
Формат: MKV
Качество: BDRip-AVC | 60 fps
Видео: 768x560 (1.371) | 59.940 fps | 3.5 Мбит/сек
Аудио: AC3 | 5.1 | 48 kHz | 640 kbps | 16 bit |

MedifInfo

Video
ID : 1
Format : AVC
Format/Info : Advanced Video Codec
Format profile : High@L4.1
Format settings, CABAC : Yes
Format settings, ReFrames : 4 frames
Codec ID : V_MPEG4/ISO/AVC
Duration : 10mn 28s
Bit rate : 3 500 Kbps
Width : 768 pixels
Height : 560 pixels
Display aspect ratio : 1.371
Frame rate : 59.940 fps
Color space : YUV
Chroma subsampling : 4:2:0
Bit depth : 8 bits
Scan type : Progressive
Bits/(Pixel*Frame) : 0.136
Stream size : 257 MiB (83%)
Writing library : x264 core 146 r2538 121396c
Encoding settings : cabac=1 / ref=3 / deblock=1:0:0 / analyse=0x3:0x113 / me=umh / subme=9 / psy=1 / psy_rd=1.00:0.10 / mixed_ref=1 / me_range=32 / chroma_me=1 / trellis=2 / 8x8dct=1 / cqm=0 / deadzone=21,11 / fast_pskip=0 / chroma_qp_offset=-3 / threads=12 / lookahead_threads=3 / sliced_threads=0 / nr=0 / decimate=1 / interlaced=0 / bluray_compat=0 / constrained_intra=0 / bframes=16 / b_pyramid=2 / b_adapt=2 / b_bias=0 / direct=3 / weightb=1 / open_gop=0 / weightp=2 / keyint=250 / keyint_min=25 / scenecut=40 / intra_refresh=0 / rc_lookahead=40 / rc=2pass / mbtree=0 / bitrate=3500 / ratetol=1.0 / qcomp=0.60 / qpmin=0 / qpmax=69 / qpstep=4 / cplxblur=20.0 / qblur=0.5 / vbv_maxrate=14000 / vbv_bufsize=14000 / nal_hrd=none / filler=0 / ip_ratio=1.40 / pb_ratio=1.30 / aq=1:1.00
Language : English
Default : Yes
Forced : No
Audio
ID : 2
Format : AC-3
Format/Info : Audio Coding 3
Mode extension : CM (complete main)
Codec ID : A_AC3
Duration : 10mn 28s
Bit rate mode : Constant
Bit rate : 640 Kbps
Channel(s) : 6 channels
Channel positions : Front: L C R, Side: L R, LFE
Sampling rate : 48.0 KHz
Bit depth : 16 bits
Compression mode : Lossy
Stream size : 47.9 MiB (15%)
Title : Оригинал
Language : Russian
Default : Yes
Forced : No
 
Показать сообщения:    

Текущее время: 08-Дек 19:08

Часовой пояс: UTC + 3


Вы не можете начинать темы
Вы не можете отвечать на сообщения
Вы не можете редактировать свои сообщения
Вы не можете удалять свои сообщения
Вы не можете голосовать в опросах
Вы не можете прикреплять файлы к сообщениям
Вы не можете скачивать файлы