[Цитировать]
Mr.West

-Первый мститель: Другая война / Captain America: The Winter Soldier (2014) BDRip [720р]|60fps- Год выпуска: 2014
Производство: США / Marvel Entertainment, Sony Pictures Imageworks
Жанр: Фантастика, Боевик, Приключения
Режиссер: Энтони Руссо, Джо Руссо
Продюсер: Кевин Файги, Виктория Алонсо, Митчелл Белл
Актеры: Крис Эванс, Скарлетт Йоханссон, Энтони Маки, Себастьян Стэн, Роберт Редфорд, Сэмюэл Л. Джексон, Фрэнк Грилло, Коби Смолдерс, Эмили ВанКэмп, Максимилиано Эрнандес...
Описание фильма:
После беспрецедентных событий, впервые собравших вместе команду Мстителей, Стив Роджерс, известный также как Капитан Америка, оседает в Вашингтоне и пытается приспособиться к жизни в современном мире. Но покой этому герою только снится — пытаясь помочь коллеге из агентства Щ. И. Т, Стив оказывается в центре событий, грозящих катастрофой мирового масштаба. Для того, чтобы разоблачить злодейский заговор, Капитан Америка объединяется с Черной вдовой. К ним также присоединяется новый соратник, известный как Сокол, однако никто из них даже не подозревает, на что способен новый враг.
Перевод: Дублированный (Лицензия)
Субтитры: Вшитые не отключаемые форсированные
Язык субтитров: Русский

Дата мировой премьеры: 13 марта 2014, США, Голливуд, Калифорния
Дата российской премьеры: 3 апреля 2014, «WDSSPR»
Дата выхода DVD релиза: 12 августа 2014, «Уолт Дисней Компани СНГ»
Дата выхода Blu-Ray релиза: 12 августа 2014, «Уолт Дисней Компани СНГ»
Продолжительность: 02:15:54
Качество видео: BDRip 720p
Видеокодек: MPEG-4 AVC/H.264
Битрейт видео: ~6 215 Kbps
Размер кадра: 1280 x 544
Аудио: AC3 5.1, 48.0 KHz, 640 Kbps - Русский

MediaInfo:

General
Unique ID : 197336350353007209087032958607755576400 (0x9475993F8F4B61DB8D78A6754E2C0450)
Complete name : D:\Торренты\Captain America.The Winter Soldier 60fps.mkv
Format : Matroska
Format version : Version 2
File size : 6.64 GiB
Duration : 2h 15mn
Overall bit rate : 6 995 Kbps
Movie name : Captain America: The Winter Soldier (2014) BDRemux 1080p
Encoded date : UTC 2014-08-15 13:48:38
Writing application : mkvmerge v6.9.1 ('Blue Panther') 64bit built on Apr 18 2014 18:23:38
Writing library : libebml v1.3.0 + libmatroska v1.4.1
Video
ID : 1
Format : AVC
Format/Info : Advanced Video Codec
Format profile : High@L4.1
Format settings, CABAC : Yes
Format settings, ReFrames : 6 frames
Codec ID : V_MPEG4/ISO/AVC
Duration : 2h 15mn
Bit rate : 6 215 Kbps
Width : 1 280 pixels
Height : 544 pixels
Display aspect ratio : 2.35:1
Frame rate mode : Constant
Frame rate : 59.880 fps
Original frame rate : 59.940 fps
Color space : YUV
Chroma subsampling : 4:2:0
Bit depth : 8 bits
Scan type : Progressive
Bits/(Pixel*Frame) : 0.149
Stream size : 5.90 GiB (89%)
Title : Release by mimok
Writing library : x264 core 125 r2208 d9d2288
Encoding settings : cabac=1 / ref=6 / deblock=0:0:0 / analyse=0x3:0x133 / me=umh / subme=8 / psy=1 / psy_rd=1.00:0.15 / mixed_ref=1 / me_range=20 / chroma_me=1 / trellis=2 / 8x8dct=1 / cqm=0 / deadzone=21,11 / fast_pskip=0 / chroma_qp_offset=-3 / threads=6 / lookahead_threads=1 / sliced_threads=0 / nr=0 / decimate=0 / interlaced=0 / bluray_compat=0 / constrained_intra=0 / bframes=7 / b_pyramid=2 / b_adapt=2 / b_bias=0 / direct=1 / weightb=1 / open_gop=0 / weightp=2 / keyint=600 / keyint_min=59 / scenecut=40 / intra_refresh=0 / rc=crf / mbtree=0 / crf=16.0 / qcomp=0.63 / qpmin=10 / qpmax=51 / qpstep=4 / ip_ratio=1.40 / pb_ratio=1.30 / aq=1:1.20
Default : Yes
Forced : No
Audio
ID : 2
Format : AC-3
Format/Info : Audio Coding 3
Mode extension : CM (complete main)
Format settings, Endianness : Big
Codec ID : A_AC3
Duration : 2h 15mn
Bit rate mode : Constant
Bit rate : 640 Kbps
Channel(s) : 6 channels
Channel positions : Front: L C R, Side: L R, LFE
Sampling rate : 48.0 KHz
Bit depth : 16 bits
Compression mode : Lossy
Stream size : 622 MiB (9%)
Title : 640, Лицензия
Language : Russian
Default : Yes
Forced : No
Скриншоты:

[Цитировать]
mimok

Mr.West, сэмпл не рабочий. Сделайте новый и оставьте в коментариях

[Цитировать]
Mr.West

mimok, хорошо сделаю

[Цитировать]
Mr.West

[Цитировать]
ZHz

Mr.West, вы сами то пробовали его открывать? 20 Мб и не воспроизводится ни чем

[Цитировать]
Mr.West

я не мастер сэмплы делать :ac:

[Цитировать]
ZHz

Mr.West, SolveigMM AVI Trimmer+MKV предельно простая прога, она даже видео не пережимает, чисто режет

[Цитировать]
ZHz

и сэмпл должен быть около минуты, не то чтобы правило, но признак хорошего тона

[Цитировать]
Mr.West

ZHz, http://sendfile.su/1050883

[Цитировать]
ZHz

Вставил сэмпл
 
Показать сообщения:    

Текущее время: 23-Сен 01:16

Часовой пояс: UTC + 3


Вы не можете начинать темы
Вы не можете отвечать на сообщения
Вы не можете редактировать свои сообщения
Вы не можете удалять свои сообщения
Вы не можете голосовать в опросах
Вы не можете прикреплять файлы к сообщениям
Вы не можете скачивать файлы