[Цитировать]
Kryl

«In heroes we trust»- Информация
Название: Первый мститель: Другая война
Оригинальное название: Captain America: The Winter Soldier
Год выхода: 2014
Жанр: фантастика, боевик, приключения
Режиссер: Энтони Руссо, Джо Руссо
Сценарий: Кристофер Маркус, Стивен МакФили, Джо Саймон
Продюсер: Кевин Файги, Виктория Алонсо, Митчелл Белл
В ролях: Крис Эванс, Скарлетт Йоханссон, Энтони Маки, Себастьян Стэн, Сэмюэл Л. Джексон, Роберт Редфорд, Фрэнк Грилло, Коби Смолдерс, Эмили ВанКэмп, Максимилиано Эрнандес
--Сюжет:
После беспрецедентных событий, впервые собравших вместе команду Мстителей, Стив Роджерс, известный также как Капитан Америка, оседает в Вашингтоне и пытается приспособиться к жизни в современном мире. Но покой этому герою только снится — пытаясь помочь коллеге из агентства Щ. И. Т, Стив оказывается в центре событий, грозящих катастрофой мирового масштаба. Для того, чтобы разоблачить злодейский заговор, Капитан Америка объединяется с Черной вдовой. К ним также присоединяется новый соратник, известный как Сокол, однако никто из них даже не подозревает, на что способен новый враг.- - Страна: США
Продолжительность: 02:15:54

Файл
Кодек: MPEG4/ISO/AVC H.264
Формат: MKV
Качество: BDRip 1080p | 60 fps
Видео: 1920 x 800 (2.400) | 59.940 fps | 23.0 Мбит/сек
Аудио 1: AC3 | 5.1 | 48 kHz | 640 kbps | 16 bit | Дубляж |
Аудио 2: AC3 | 5.1 | 48 kHz | 448 kbps | 16 bit | ENG |
Субтитры: Русские (форс,полные), Английские

MedifInfo

Видео
Идентификатор : 1
Формат : AVC
Формат/Информация : Advanced Video Codec
Профиль формата : High@L4.2
Параметр CABAC формата : Да
Параметр ReFrames формата : 3 кадра
Идентификатор кодека : V_MPEG4/ISO/AVC
Продолжительность : 2 ч. 15 м.
Вид битрейта : Переменный
Битрейт : 22,3 Мбит/сек
Максимальный битрейт : 23,0 Мбит/сек
Ширина : 1920 пикселей
Высота : 800 пикселей
Соотношение сторон : 2,40:1
Режим частоты кадров : Постоянный
Частота кадров : 59,880 кадров/сек
Частота кадров в оригинале : 59,940 кадров/сек
Стандарт вещания : PAL
Цветовое пространство : YUV
Субдискретизация насыщенности : 4:2:0
Битовая глубина : 8 бит
Тип развёртки : Прогрессивная
Бит/(Пиксели*Кадры) : 0.243
Размер потока : 21,2 Гбайт (93%)
Заголовок : www.60-fps.org
Язык : English
Default : Да
Forced : Нет
Основные цвета : BT.709
Характеристики трансфера : BT.709
Коэффициенты матрицы : BT.709
colour_range : Limited
Аудио #1
Идентификатор : 2
Формат : AC-3
Формат/Информация : Audio Coding 3
Расширение режима : CM (complete main)
Параметр Endianness формата : Big
Идентификатор кодека : A_AC3
Продолжительность : 2 ч. 15 м.
Вид битрейта : Постоянный
Битрейт : 640 Кбит/сек
Каналы : 6 каналов
Расположение каналов : Front: L C R, Side: L R, LFE
Частота : 48,0 КГц
Битовая глубина : 16 бит
Метод сжатия : С потерями
Размер потока : 622 Мбайт (3%)
Заголовок : Дубляж
Язык : Russian
Default : Да
Forced : Нет
Аудио #2
Идентификатор : 3
Формат : AC-3
Формат/Информация : Audio Coding 3
Расширение режима : CM (complete main)
Параметр Endianness формата : Big
Идентификатор кодека : A_AC3
Продолжительность : 2 ч. 15 м.
Вид битрейта : Постоянный
Битрейт : 448 Кбит/сек
Каналы : 6 каналов
Расположение каналов : Front: L C R, Side: L R, LFE
Частота : 48,0 КГц
Битовая глубина : 16 бит
Метод сжатия : С потерями
Размер потока : 435 Мбайт (2%)
Заголовок : Eng
Язык : English
Default : Нет
Forced : Нет
Текст #1
Идентификатор : 4
Формат : UTF-8
Идентификатор кодека : S_TEXT/UTF8
Идентификатор кодека/Информация : UTF-8 Plain Text
Заголовок : Rus forced
Язык : Russian
Default : Да
Forced : Да
Текст #2
Идентификатор : 5
Формат : UTF-8
Идентификатор кодека : S_TEXT/UTF8
Идентификатор кодека/Информация : UTF-8 Plain Text
Заголовок : Rus
Язык : Russian
Default : Нет
Forced : Нет
Текст #3
Идентификатор : 6
Формат : UTF-8
Идентификатор кодека : S_TEXT/UTF8
Идентификатор кодека/Информация : UTF-8 Plain Text
Заголовок : Eng
Язык : English
Default : Нет
Forced : Нет
Меню
00:00:00.000 : :Chapter 01
00:03:28.666 : :Chapter 02
00:13:31.727 : :Chapter 03
00:17:57.868 : :Chapter 04
00:22:25.302 : :Chapter 05
00:33:20.415 : :Chapter 06
00:41:27.276 : :Chapter 07
00:51:37.302 : :Chapter 08
00:58:23.958 : :Chapter 09
01:07:40.347 : :Chapter 10
01:16:22.202 : :Chapter 11
01:24:43.078 : :Chapter 12
01:32:17.698 : :Chapter 13
01:37:06.612 : :Chapter 14
01:49:13.088 : :Chapter 15
01:55:03.730 : :Chapter 16
02:01:11.055 : :Chapter 17
02:06:22.241 : :Chapter 18
02:15:53.937 : :Chapter 19
Киношка сделана по заказу пользователя
badika19911992

Релиз подготовлен 60 - fps

[Цитировать]
MeZZAPT

можно в личку настройки кодирования , а то хотят как сцен рип и не пускают релиз на торрент Злой

[Цитировать]
kingringamagerus

Добавьте, пожалуйста, фильм "Невероятный Халк" 1080p 60 fps. Не хватает для полной коллекции Marvel.
 
Показать сообщения:    

Текущее время: 08-Дек 08:59

Часовой пояс: UTC + 3


Вы не можете начинать темы
Вы не можете отвечать на сообщения
Вы не можете редактировать свои сообщения
Вы не можете удалять свои сообщения
Вы не можете голосовать в опросах
Вы не можете прикреплять файлы к сообщениям
Вы не можете скачивать файлы