[Цитировать]
Kryl

«When patriots become heroes»- Информация
Название: Первый мститель
Оригинальное название: Captain America: The First Avenger
Год выхода: 2011
Жанр: Фантастика, боевик, триллер, приключения, комикс, супергерой
Режиссер: Джо Джонстон
Сценарий: Кристофер Маркус, Стивен МакФили, Джо Саймон
Продюсер: Кевин Файги, Виктория Алонсо, Митчелл Белл
В ролях: Крис Эванс, Хьюго Уивинг, Томми Ли Джонс, Стэнли Туччи, Ричард Армитедж, Хейли Этвелл, Доминик Купер, Натали Дормер, Себастьян Стэн, Нил МакДонаф
--Сюжет:
Стив Роджерс добровольно соглашается принять участие в эксперименте, который превратит его в суперсолдата, известного как Первый мститель. Роджерс вступает в вооруженные силы США вместе с Баки Барнсом и Пегги Картер, чтобы бороться с враждебной организацией ГИДРА, которой управляет безжалостный Красный Череп.- - Страна: США
Продолжительность: 02:04:11

Файл
Кодек: MPEG4/ISO/AVC H.264
Формат: MKV
Качество: BDRip 1080p | 60 fps
Видео: 1920 x 816 (2.353) | 59.940 fps | 25.0 Мбит/сек
Аудио 1: AC3 | 5.1 | 48 kHz | 640 kbps | 16 bit | Дубляж |
Аудио 2: AC3 | 5.1 | 48 kHz | 448 kbps | 16 bit | Авторский (одноголосый, закадровый) А.Гаврилов |
Аудио 3: DTS-HD MA | 7.1 | 48 kHz | 5097 kbps | 24 bit (DTS Core: 5.1 / 48 kHz / 1509 kbps) | ENG |
Субтитры: Russian (Full, Forced), English

MedifInfo

Видео
Идентификатор : 1
Формат : AVC
Формат/Информация : Advanced Video Codec
Профиль формата : High@L4.2
Параметр CABAC формата : Да
Параметр ReFrames формата : 3 кадра
Параметр GOP формата : M=3, N=72
Идентификатор кодека : V_MPEG4/ISO/AVC
Продолжительность : 2 ч. 4 м.
Вид битрейта : Переменный
Максимальный битрейт : 25,0 Мбит/сек
Ширина : 1920 пикселей
Высота : 816 пикселей
Соотношение сторон : 2,35:1
Режим частоты кадров : Постоянный
Частота кадров : 59,880 кадров/сек
Частота кадров в оригинале : 59,940 кадров/сек
Стандарт вещания : PAL
Цветовое пространство : YUV
Субдискретизация насыщенности : 4:2:0
Битовая глубина : 8 бит
Тип развёртки : Прогрессивная
Заголовок : www.60-fps.org
Язык : English
Default : Да
Forced : Нет
Основные цвета : BT.709
Характеристики трансфера : BT.709
Коэффициенты матрицы : BT.709
colour_range : Limited
Аудио #1
Идентификатор : 2
Формат : AC-3
Формат/Информация : Audio Coding 3
Расширение режима : CM (complete main)
Параметр Endianness формата : Big
Идентификатор кодека : A_AC3
Продолжительность : 2 ч. 4 м.
Вид битрейта : Постоянный
Битрейт : 640 Кбит/сек
Каналы : 6 каналов
Расположение каналов : Front: L C R, Side: L R, LFE
Частота : 48,0 КГц
Битовая глубина : 16 бит
Метод сжатия : С потерями
Размер потока : 569 Мбайт (2%)
Заголовок : Дубляж
Язык : Russian
Default : Да
Forced : Нет
Аудио #2
Идентификатор : 3
Формат : AC-3
Формат/Информация : Audio Coding 3
Расширение режима : CM (complete main)
Параметр Endianness формата : Big
Идентификатор кодека : A_AC3
Продолжительность : 2 ч. 4 м.
Вид битрейта : Постоянный
Битрейт : 448 Кбит/сек
Каналы : 6 каналов
Расположение каналов : Front: L C R, Side: L R, LFE
Частота : 48,0 КГц
Битовая глубина : 16 бит
Метод сжатия : С потерями
Размер потока : 398 Мбайт (1%)
Заголовок : А.Гаврилов
Default : Нет
Forced : Нет
Аудио #3
Идентификатор : 4
Формат : DTS
Формат/Информация : Digital Theater Systems
Профиль формата : MA / Core
Режим : 16
Параметр Endianness формата : Big
Идентификатор кодека : A_DTS
Продолжительность : 2 ч. 4 м.
Вид битрейта : Переменный
Битрейт : Неизвестно / 1509 Кбит/сек
Каналы : 8 каналов / 6 каналов
Расположение каналов : Front: L C R, Side: L R, Back: L R, LFE / Front: L C R, Side: L R, LFE
Частота : 48,0 КГц
Битовая глубина : 24 бит
Метод сжатия : Без потерь / Lossy
Заголовок : ENG
Язык : English
Default : Нет
Forced : Нет
Текст #1
Идентификатор : 5
Формат : UTF-8
Идентификатор кодека : S_TEXT/UTF8
Идентификатор кодека/Информация : UTF-8 Plain Text
Заголовок : Forced
Язык : Russian
Default : Да
Forced : Нет
Текст #2
Идентификатор : 6
Формат : UTF-8
Идентификатор кодека : S_TEXT/UTF8
Идентификатор кодека/Информация : UTF-8 Plain Text
Язык : Russian
Default : Нет
Forced : Нет
Текст #3
Идентификатор : 7
Формат : UTF-8
Идентификатор кодека : S_TEXT/UTF8
Идентификатор кодека/Информация : UTF-8 Plain Text
Язык : English
Default : Нет
Forced : Нет
Меню
00:00:00.000 : en:Chapter 01
00:08:12.158 : en:Chapter 02
00:14:56.813 : en:Chapter 03
00:24:21.543 : en:Chapter 04
00:30:39.129 : en:Chapter 05
00:38:39.859 : en:Chapter 06
00:45:52.166 : en:Chapter 07
00:51:58.157 : en:Chapter 08
00:57:55.639 : en:Chapter 09
01:03:59.294 : en:Chapter 10
01:12:22.588 : en:Chapter 11
01:19:10.663 : en:Chapter 12
01:28:27.052 : en:Chapter 13
01:33:53.002 : en:Chapter 14
01:42:20.343 : en:Chapter 15
01:50:45.055 : en:Chapter 16
01:53:46.319 : en:Chapter 17
Киношка сделана по заказу пользователя
badika19911992

Релиз подготовлен 60 - fps



Последний раз редактировалось: Kryl (2016-04-10 08:59), всего редактировалось 3 раз(а)

[Цитировать]
MeZZAPT

Перекур Да

[Цитировать]
DAKnn

не знаю как другим, но этот релиз по ощущениям как будто 30 fps, хоть и выводится в 60fps Нет слов

[Цитировать]
psychoward

yeah, the quarlity of this is not good, looks a bit blurry like 720P and doesn't feel very smooth like 60fps Поцелуй
 
Показать сообщения:    

Текущее время: 19-Окт 19:14

Часовой пояс: UTC + 3


Вы не можете начинать темы
Вы не можете отвечать на сообщения
Вы не можете редактировать свои сообщения
Вы не можете удалять свои сообщения
Вы не можете голосовать в опросах
Вы не можете прикреплять файлы к сообщениям
Вы не можете скачивать файлы