VIP

Тор: Рагнарёк / Thor: Ragnarok (2017) BDRip 1080p | 60 fps Мстители: Эра Альтрона / Avengers: Age of Ultron (2015) BDRip 1080p | 60 fps Стражи Галактики. Часть 2 / Guardians of the Galaxy Vol. 2 (2017) BDRip 1080p | 60 fps Доктор Стрэндж / Doctor Strange (2016) BDRip 1080p | 60 fps Чёрная Пантера / Black Panther (2018) BDRip 1080p | 60 fps Первый мститель: Противостояние / Captain America: Civil War (2016) BDRip 1080p | 60 fps Мстители / The Avengers (2012) BDRip 720p | 60 fps Дэдпул / Deadpool (2016) BDRip 1080p | 60 fps
  1. Стаж:
    4 года
    Сообщений:
    2415
    Пол:
    Мужской
    «Загрузи новую реальность» Информация
    Название: Первому игроку приготовиться
    Оригинальное название: Ready Player One
    Год выхода: 2018
    Жанр: Фантастика, боевик, приключения
    Режиссер: Стивен Спилберг
    Сценарий: Эрнест Клайн, Зак Пенн
    Продюсер: Дональд Де Лайн, Дэн Фара
    В ролях: Тай Шеридан, Оливия Кук, Бен Мендельсон, Лина Уэйте, ТиДжей Миллер, Саймон Пегг, Марк Райлэнс, Филип Чжао, Уин Морисаки, Ханна Джон-Кэймен, Ралф Айнесон, Сьюзэн Линч, Клер Хиггинс, Лоуренс Спэллман, Пердита Викс, Джоэль МакКормэк, Кит Коннор, Лео Хеллер, Линн Уилморт

    Сюжет:
    Действие фильма происходит в 2045 году, мир погружается в хаос и находится на грани коллапса. Люди ищут спасения в игре OASIS — огромной вселенной виртуальной реальности. Ее создатель, гениальный и эксцентричный Джеймс Холлидэй, оставляет уникальное завещание. Все его колоссальное состояние получит игрок, первым обнаруживший цифровое «пасхальное яйцо», которое миллиардер спрятал где-то на просторах OASISа. Запущенный им квест охватывает весь мир. Совершенно негероический парень по имени Уэйд Уоттс решает принять участие в состязании, с головой бросаясь в головокружительную, искажающую реальность погоню за сокровищами по фантастической вселенной, полной загадок, открытий и опасностей.

    Страна: США
    Продолжительность: 02:19:58

    Файл
    Кодек: H.264
    Формат: MKV
    Качество: BDRip 720p | 60 fps
    Видео: 1280 x 536 (2.388) | 59.940 fps | 10.0 Мбит/сек
    Аудио 01: AC3 | 5.1 | 48 kHz | 384 kbps | 16 bit | Дубляж - iTunes |
    Аудио 02: AC3 | 2.0 | 48 kHz | 192 kbps | 16 bit | HDRezka Studio |
    Аудио 03: AC3 | 5.1 | 48 kHz | 448 kbps | 16 bit | english |
    Субтитры: Русские (Forced, 2xFull), английские

    MedifInfo

    Видео
    Идентификатор : 1
    Формат : AVC
    Формат/Информация : Advanced Video Codec
    Профиль формата : High@L4.1
    Настройки формата : CABAC / 4 Ref Frames
    Параметр CABAC формата : Да
    Параметр RefFrames формата : 4 кадра
    Режим смешивания : Header stripping
    Идентификатор кодека : V_MPEG4/ISO/AVC
    Продолжительность : 2 ч. 19 м.
    Вид битрейта : Переменный
    Битрейт : 9580 Кбит/сек
    Максимальный битрейт : 10000 Кбит/сек
    Ширина : 1280 пикселей
    Высота : 536 пикселей
    Соотношение сторон : 2,40:1
    Режим частоты кадров : Постоянный
    Частота кадров : 59,940 (60000/1001) кадров/сек
    Стандарт вещания : NTSC
    Цветовое пространство : YUV
    Субдискретизация насыщенности : 4:2:0
    Битовая глубина : 8 бит
    Тип развёртки : Прогрессивная
    Бит/(Пиксели*Кадры) : 0.233
    Размер потока : 9,37 Гбайт (89%)
    Заголовок : www.60-fps.org
    Язык : English
    Default : Да
    Forced : Нет
    Цветовой диапазон : Limited
    Основные цвета : BT.601 NTSC
    Характеристики трансфера : BT.601
    Коэффициенты матрицы : BT.601
    Аудио #1
    Идентификатор : 2
    Формат : AC-3
    Формат/Информация : Audio Coding 3
    Режим смешивания : Header stripping
    Идентификатор кодека : A_AC3
    Продолжительность : 2 ч. 19 м.
    Вид битрейта : Постоянный
    Битрейт : 384 Кбит/сек
    Каналы : 6 каналов
    Расположение каналов : Front: L C R, Side: L R, LFE
    Частота : 48,0 КГц
    Частота кадров : 31,250 кадров/сек (1536 SPF)
    Битовая глубина : 16 бит
    Метод сжатия : С потерями
    Размер потока : 384 Мбайт (4%)
    Заголовок : Дубляж - iTunes
    Язык : Russian
    ServiceKind/String : Complete Main
    Default : Да
    Forced : Да
    Аудио #2
    Идентификатор : 3
    Формат : AC-3
    Формат/Информация : Audio Coding 3
    Режим смешивания : Header stripping
    Идентификатор кодека : A_AC3
    Продолжительность : 2 ч. 19 м.
    Вид битрейта : Постоянный
    Битрейт : 192 Кбит/сек
    Каналы : 2 канала
    Расположение каналов : Front: L R
    Частота : 48,0 КГц
    Частота кадров : 31,250 кадров/сек (1536 SPF)
    Битовая глубина : 16 бит
    Метод сжатия : С потерями
    Размер потока : 192 Мбайт (2%)
    Заголовок : HDRezka Studio
    Язык : Russian
    ServiceKind/String : Complete Main
    Default : Нет
    Forced : Нет
    Аудио #3
    Идентификатор : 4
    Формат : AC-3
    Формат/Информация : Audio Coding 3
    Режим смешивания : Header stripping
    Идентификатор кодека : A_AC3
    Продолжительность : 2 ч. 19 м.
    Вид битрейта : Постоянный
    Битрейт : 448 Кбит/сек
    Каналы : 6 каналов
    Расположение каналов : Front: L C R, Side: L R, LFE
    Частота : 48,0 КГц
    Частота кадров : 31,250 кадров/сек (1536 SPF)
    Битовая глубина : 16 бит
    Метод сжатия : С потерями
    Размер потока : 449 Мбайт (4%)
    Заголовок : english
    Язык : English
    ServiceKind/String : Complete Main
    Default : Нет
    Forced : Нет
    Текст #1
    Идентификатор : 5
    Формат : UTF-8
    Идентификатор кодека : S_TEXT/UTF8
    Идентификатор кодека/Информация : UTF-8 Plain Text
    Заголовок : Forced
    Язык : Russian
    Default : Да
    Forced : Да
    Текст #2
    Идентификатор : 6
    Формат : UTF-8
    Идентификатор кодека : S_TEXT/UTF8
    Идентификатор кодека/Информация : UTF-8 Plain Text
    Заголовок : Full
    Язык : Russian
    Default : Нет
    Forced : Нет
    Текст #3
    Идентификатор : 7
    Формат : UTF-8
    Идентификатор кодека : S_TEXT/UTF8
    Идентификатор кодека/Информация : UTF-8 Plain Text
    Заголовок : Full v.2
    Язык : Russian
    Default : Нет
    Forced : Нет
    Текст #4
    Идентификатор : 8
    Формат : UTF-8
    Идентификатор кодека : S_TEXT/UTF8
    Идентификатор кодека/Информация : UTF-8 Plain Text
    Заголовок : Full
    Язык : English
    Default : Нет
    Forced : Нет
    Меню
    00:00:00.000 : en:00:00:00.000
    00:10:08.233 : en:00:10:08.233
    00:20:18.259 : en:00:20:18.259
    00:30:37.627 : en:00:30:37.627
    00:40:38.269 : en:00:40:38.269
    00:50:08.964 : en:00:50:08.964
    01:03:01.778 : en:01:03:01.778
    01:11:55.269 : en:01:11:55.269
    01:20:14.727 : en:01:20:14.727
    01:30:58.328 : en:01:30:58.328
    01:43:26.742 : en:01:43:26.742
    01:53:02.150 : en:01:53:02.150
    02:04:20.161 : en:02:04:20.161
    02:09:17.249 : en:02:09:17.249

    Релиз подготовлен 60 - fps

  2. Стаж:
    2 месяца 17 дней
    Сообщений:
    9
    Пол:
    Мужской
    Дайте плз скачать)
    21-Сен-2018 04:26 (спустя 2 месяца 11 дней)


Вы не можете начинать темы
Вы не можете отвечать на сообщения
Вы не можете редактировать свои сообщения
Вы не можете удалять свои сообщения
Вы не можете голосовать в опросах
Вы не можете прикреплять файлы к сообщениям
Вы не можете скачивать файлы