Тор: Рагнарёк / Thor: Ragnarok (2017) BDRip 1080p | 60 fps Стражи Галактики. Часть 2 / Guardians of the Galaxy Vol. 2 (2017) BDRip 1080p | 60 fps Мстители: Эра Альтрона / Avengers: Age of Ultron (2015) BDRip 1080p | 60 fps Доктор Стрэндж / Doctor Strange (2016) BDRip 1080p | 60 fps Первый мститель: Противостояние / Captain America: Civil War (2016) BDRip 1080p | 60 fps Мстители / The Avengers (2012) BDRip 720p | 60 fps Человек-паук: Возвращение домой / Spider-Man: Homecoming (2017) BDRip 1080p | 60 fps Чёрная Пантера / Black Panther (2018) BDRip 1080p | 60 fps
  1. Стаж:
    3 года 11 месяцев
    Сообщений:
    2411
    Пол:
    Мужской
    «Загрузи новую реальность» Информация
    Название: Первому игроку приготовиться
    Оригинальное название: Ready Player One
    Год выхода: 2018
    Жанр: Фантастика, боевик, приключения
    Режиссер: Стивен Спилберг
    Сценарий: Эрнест Клайн, Зак Пенн
    Продюсер: Дональд Де Лайн, Дэн Фара
    В ролях: Тай Шеридан, Оливия Кук, Бен Мендельсон, Лина Уэйте, ТиДжей Миллер, Саймон Пегг, Марк Райлэнс, Филип Чжао, Уин Морисаки, Ханна Джон-Кэймен, Ралф Айнесон, Сьюзэн Линч, Клер Хиггинс, Лоуренс Спэллман, Пердита Викс, Джоэль МакКормэк, Кит Коннор, Лео Хеллер, Линн Уилморт

    Сюжет:
    Действие фильма происходит в 2045 году, мир погружается в хаос и находится на грани коллапса. Люди ищут спасения в игре OASIS — огромной вселенной виртуальной реальности. Ее создатель, гениальный и эксцентричный Джеймс Холлидэй, оставляет уникальное завещание. Все его колоссальное состояние получит игрок, первым обнаруживший цифровое «пасхальное яйцо», которое миллиардер спрятал где-то на просторах OASISа. Запущенный им квест охватывает весь мир. Совершенно негероический парень по имени Уэйд Уоттс решает принять участие в состязании, с головой бросаясь в головокружительную, искажающую реальность погоню за сокровищами по фантастической вселенной, полной загадок, открытий и опасностей.

    Страна: США
    Продолжительность: 02:19:58

    Файл
    Кодек: H.264
    Формат: MKV
    Качество: BDRip 1080p | 60 fps
    Видео: 1920 x 804 (2.388) | 59.940 fps | 23.0 Мбит/сек
    Аудио 01: AC3 | 5.1 | 48 kHz | 384 kbps | 16 bit | Дубляж - iTunes |
    Аудио 02: AC3 | 2.0 | 48 kHz | 192 kbps | 16 bit | HDRezka Studio |
    Аудио 03: AC3 | 5.1 | 48 kHz | 448 kbps | 16 bit | english |
    Субтитры: Русские (Forced, 2xFull), английские

    MedifInfo

    Видео
    Идентификатор : 1
    Формат : AVC
    Формат/Информация : Advanced Video Codec
    Профиль формата : High@L4.1
    Параметр CABAC формата : Да
    Параметр ReFrames формата : 4 кадра
    Идентификатор кодека : V_MPEG4/ISO/AVC
    Продолжительность : 2 ч. 19 м.
    Битрейт : 23,0 Мбит/сек
    Ширина : 1920 пикселей
    Высота : 804 пикселя
    Соотношение сторон : 2,40:1
    Режим частоты кадров : Постоянный
    Частота кадров : 59,880 кадров/сек
    Частота кадров в оригинале : 59,940 кадров/сек
    Цветовое пространство : YUV
    Субдискретизация насыщенности : 4:2:0
    Битовая глубина : 8 бит
    Тип развёртки : Прогрессивная
    Бит/(Пиксели*Кадры) : 0.249
    Размер потока : 22,0 Гбайт (94%)
    Заголовок : www.60-fps.org
    Библиотека кодирования : x264 core 155 r2901 7d0ff22
    Настройки программы : cabac=1 / ref=3 / deblock=1:-3:-3 / analyse=0x3:0x113 / me=umh / subme=9 / psy=1 / psy_rd=1.00:0.25 / mixed_ref=1 / me_range=32 / chroma_me=1 / trellis=1 / 8x8dct=1 / cqm=0 / deadzone=6,6 / fast_pskip=1 / chroma_qp_offset=-4 / threads=12 / lookahead_threads=1 / sliced_threads=0 / nr=0 / decimate=0 / interlaced=0 / bluray_compat=0 / constrained_intra=0 / bframes=3 / b_pyramid=2 / b_adapt=1 / b_bias=0 / direct=1 / weightb=1 / open_gop=0 / weightp=2 / keyint=599 / keyint_min=59 / scenecut=40 / intra_refresh=0 / rc_lookahead=40 / rc=2pass / mbtree=1 / bitrate=22999 / ratetol=1.0 / qcomp=0.80 / qpmin=0 / qpmax=69 / qpstep=4 / cplxblur=20.0 / qblur=0.5 / vbv_maxrate=62500 / vbv_bufsize=78125 / nal_hrd=none / filler=0 / ip_ratio=1.10 / aq=1:0.50
    Default : Да
    Forced : Нет
    Аудио #1
    Идентификатор : 2
    Формат : AC-3
    Формат/Информация : Audio Coding 3
    Расширение режима : CM (complete main)
    Параметр Endianness формата : Big
    Идентификатор кодека : A_AC3
    Продолжительность : 2 ч. 19 м.
    Вид битрейта : Постоянный
    Битрейт : 384 Кбит/сек
    Каналы : 6 каналов
    Расположение каналов : Front: L C R, Side: L R, LFE
    Частота : 48,0 КГц
    Битовая глубина : 16 бит
    Метод сжатия : С потерями
    Размер потока : 384 Мбайт (2%)
    Заголовок : Дубляж - iTunes
    Язык : Russian
    Default : Да
    Forced : Да
    Аудио #2
    Идентификатор : 3
    Формат : AC-3
    Формат/Информация : Audio Coding 3
    Расширение режима : CM (complete main)
    Параметр Endianness формата : Big
    Идентификатор кодека : A_AC3
    Продолжительность : 2 ч. 19 м.
    Вид битрейта : Постоянный
    Битрейт : 192 Кбит/сек
    Каналы : 2 канала
    Расположение каналов : Front: L R
    Частота : 48,0 КГц
    Битовая глубина : 16 бит
    Метод сжатия : С потерями
    Размер потока : 192 Мбайт (1%)
    Заголовок : HDRezka Studio
    Язык : Russian
    Default : Нет
    Forced : Нет
    Аудио #3
    Идентификатор : 4
    Формат : AC-3
    Формат/Информация : Audio Coding 3
    Расширение режима : CM (complete main)
    Параметр Endianness формата : Big
    Идентификатор кодека : A_AC3
    Продолжительность : 2 ч. 19 м.
    Вид битрейта : Постоянный
    Битрейт : 448 Кбит/сек
    Каналы : 6 каналов
    Расположение каналов : Front: L C R, Side: L R, LFE
    Частота : 48,0 КГц
    Битовая глубина : 16 бит
    Метод сжатия : С потерями
    Размер потока : 449 Мбайт (2%)
    Заголовок : english
    Язык : English
    Default : Нет
    Forced : Нет
    Текст #1
    Идентификатор : 5
    Формат : UTF-8
    Идентификатор кодека : S_TEXT/UTF8
    Идентификатор кодека/Информация : UTF-8 Plain Text
    Заголовок : Forced
    Язык : Russian
    Default : Да
    Forced : Да
    Текст #2
    Идентификатор : 6
    Формат : UTF-8
    Идентификатор кодека : S_TEXT/UTF8
    Идентификатор кодека/Информация : UTF-8 Plain Text
    Заголовок : Full
    Язык : Russian
    Default : Нет
    Forced : Нет
    Текст #3
    Идентификатор : 7
    Формат : UTF-8
    Идентификатор кодека : S_TEXT/UTF8
    Идентификатор кодека/Информация : UTF-8 Plain Text
    Заголовок : Full v.2
    Язык : Russian
    Default : Нет
    Forced : Нет
    Текст #4
    Идентификатор : 8
    Формат : UTF-8
    Идентификатор кодека : S_TEXT/UTF8
    Идентификатор кодека/Информация : UTF-8 Plain Text
    Заголовок : Full
    Язык : English
    Default : Нет
    Forced : Нет
    Меню
    00:00:00.000 : en:00:00:00.000
    00:10:08.233 : en:00:10:08.233
    00:20:18.259 : en:00:20:18.259
    00:30:37.627 : en:00:30:37.627
    00:40:38.269 : en:00:40:38.269
    00:50:08.964 : en:00:50:08.964
    01:03:01.778 : en:01:03:01.778
    01:11:55.269 : en:01:11:55.269
    01:20:14.727 : en:01:20:14.727
    01:30:58.328 : en:01:30:58.328
    01:43:26.742 : en:01:43:26.742
    01:53:02.150 : en:01:53:02.150
    02:04:20.161 : en:02:04:20.161
    02:09:17.249 : en:02:09:17.249

    Релиз подготовлен 60 - fps

  2. Стаж:
    2 года 1 месяц
    Сообщений:
    588
    Пол:
    Мужской
    ооооо... !
    это вроде бы крутой фильм... !!!
    06-Июл-2018 00:23 (спустя 1 минута)
  3. Стаж:
    1 год 10 месяцев
    Сообщений:
    3
    Пол:
    Не указан
    пардон, я опять за свое... 720?
    07-Июл-2018 17:54 (спустя 1 день 17 часов)
  4. Стаж:
    3 года 11 месяцев
    Сообщений:
    2411
    Пол:
    Мужской
    9955пардон, я опять за свое... 720?
    Будет, но не скоро... Через несколько деньков.
    07-Июл-2018 18:40 (спустя 46 минут)
  5. Стаж:
    1 год 10 месяцев
    Сообщений:
    96
    Пол:
    Мужской
    Один из лучших фильмов в стилистике киберпанка или даже лучший.
    11-Июл-2018 21:43 (спустя 4 дня)


Вы не можете начинать темы
Вы не можете отвечать на сообщения
Вы не можете редактировать свои сообщения
Вы не можете удалять свои сообщения
Вы не можете голосовать в опросах
Вы не можете прикреплять файлы к сообщениям
Вы не можете скачивать файлы