[Цитировать]
Kryl

«All guns. No control»- Информация
Название: Перестрелка
Оригинальное название: Free Fire
Год выхода: 2016
Жанр: Боевик, триллер
Режиссер: Бен Уитли
Сценарий: Эми Джамп, Бен Уитли
Продюсер: Рено Антониадес, Майкл С. Констебл, Лиззи Франке
В ролях: Энцо Чиленти, Сэм Райли, Майкл Смайли, Бри Ларсон, Киллиан Мёрфи, Арми Хаммер, Шарлто Копли, Бабу Сизей, Ноа Тейлор, Джек Рейнор
--Сюжет:
Когда подпольная сделка по продаже оружия феерически летит под откос, целый склад превращается в масштабное поле битвы. Слова закончились, и заговорили стволы. Приз в игре на выживание — кейс с большой суммой денег, но унести его не так просто. Здесь вооружены все, каждый сам за себя, а хаос правит бал
-Страна: Великобритания, Франция
Продолжительность: 01:30:34

Файл
Кодек: MPEG4/ISO/AVC/H.264
Формат: MKV
Качество: BDRip 720p | 60 fps
Видео: 1280 x 532 (2.406) | 59.940 fps | 10.0 Мбит/сек
Аудио 1: AC3 | 5.1 | 48 kHz | 384 kbps | 16 bit | Дубляж - iTunes |
Аудио 2: AC3 | 5.1 | 48 kHz | 448 kbps | 16 bit | English |
Субтитры: English

MedifInfo

Видео
Идентификатор : 1
Формат : AVC
Формат/Информация : Advanced Video Codec
Профиль формата : High@L4.1
Параметр CABAC формата : Да
Параметр ReFrames формата : 3 кадра
Параметр GOP формата : M=3, N=72
Идентификатор кодека : V_MPEG4/ISO/AVC
Продолжительность : 1 ч. 30 м.
Вид битрейта : Переменный
Битрейт : 9544 Кбит/сек
Максимальный битрейт : 10000 Кбит/сек
Ширина : 1280 пикселей
Высота : 532 пикселя
Соотношение сторон : 2,40:1
Режим частоты кадров : Постоянный
Частота кадров : 59,880 кадров/сек
Частота кадров в оригинале : 59,940 кадров/сек
Стандарт вещания : PAL
Цветовое пространство : YUV
Субдискретизация насыщенности : 4:2:0
Битовая глубина : 8 бит
Тип развёртки : Прогрессивная
Бит/(Пиксели*Кадры) : 0.234
Размер потока : 6,04 Гбайт (90%)
Заголовок : www.60-fps.org
Язык : English
Default : Да
Forced : Нет
Основные цвета : BT.601 NTSC
Характеристики трансфера : BT.601
Коэффициенты матрицы : BT.601
colour_range : Limited
Аудио #1
Идентификатор : 2
Формат : AC-3
Формат/Информация : Audio Coding 3
Расширение режима : CM (complete main)
Параметр Endianness формата : Big
Идентификатор кодека : A_AC3
Продолжительность : 1 ч. 30 м.
Вид битрейта : Постоянный
Битрейт : 384 Кбит/сек
Каналы : 6 каналов
Расположение каналов : Front: L C R, Side: L R, LFE
Частота : 48,0 КГц
Битовая глубина : 16 бит
Метод сжатия : С потерями
Размер потока : 249 Мбайт (4%)
Заголовок : Дубляж - iTunes
Язык : Russian
Default : Да
Forced : Нет
Аудио #2
Идентификатор : 3
Формат : AC-3
Формат/Информация : Audio Coding 3
Расширение режима : CM (complete main)
Параметр Endianness формата : Big
Идентификатор кодека : A_AC3
Продолжительность : 1 ч. 30 м.
Вид битрейта : Постоянный
Битрейт : 448 Кбит/сек
Каналы : 6 каналов
Расположение каналов : Front: L C R, Side: L R, LFE
Частота : 48,0 КГц
Битовая глубина : 16 бит
Метод сжатия : С потерями
Размер потока : 290 Мбайт (4%)
Заголовок : english
Язык : English
Default : Нет
Forced : Нет
Текст
Идентификатор : 4
Формат : UTF-8
Идентификатор кодека : S_TEXT/UTF8
Идентификатор кодека/Информация : UTF-8 Plain Text
Заголовок : SDH (Colored)
Язык : English
Default : Нет
Forced : Нет
Меню
00:00:00.000 : en:Chapter 1
00:07:31.368 : en:Chapter 2
00:09:32.655 : en:Chapter 3
00:15:12.036 : en:Chapter 4
00:20:35.693 : en:Chapter 5
00:27:40.867 : en:Chapter 6
00:32:48.300 : en:Chapter 7
00:37:54.022 : en:Chapter 8
00:43:09.795 : en:Chapter 9
00:48:48.008 : en:Chapter 10
00:54:27.639 : en:Chapter 11
00:59:18.096 : en:Chapter 12
01:05:36.432 : en:Chapter 13
01:09:08.102 : en:Chapter 14
01:15:16.887 : en:Chapter 15
01:22:35.117 : en:Chapter 16

Релиз подготовлен 60 - fps

 
Показать сообщения:    

Текущее время: 21-Сен 15:29

Часовой пояс: UTC + 3


Вы не можете начинать темы
Вы не можете отвечать на сообщения
Вы не можете редактировать свои сообщения
Вы не можете удалять свои сообщения
Вы не можете голосовать в опросах
Вы не можете прикреплять файлы к сообщениям
Вы не можете скачивать файлы