[Цитировать]
Kryl

«Он зарабатывает на жизнь, освобождая заложников, и берет заложников, чтобы выжить»- Информация
Название: Переговорщик
Оригинальное название: The Negotiator
Год выхода: 1998
Жанр: Боевик, триллер, драма, криминал, детектив
Режиссер: Ф. Гэри Грей
Сценарий: Джеймс ДеМонако, Кевин Фокс
Продюсер: Дэвид Хоберман, Арнон Милчен, Альберт Бэверидж
В ролях: Сэмюэл Л. Джексон, Кевин Спейси, Дэвид Морс, Рон Рифкин, Джон Спенсер, Дж.Т. Уолш, Шаван Фэллон, Пол Джаматти, Реджина Тейлор, Брюс Битти
--Сюжет:
Переговорщик — это полицейский, ведущий переговоры с преступниками или террористами, захватившими заложников. Герой картины Дэнни Роумэн — один из лучших «переговорщиков» в Чикаго. Напарник и близкий друг Роумэна сообщает ему, что в Фонде помощи инвалидам, членом правления которого был Дэнни, расхищают деньги, а он знает, кто за этим стоит. Это Терренс Найбаум из отдела внутренних расследований.
Друг назначил Дэнни встречу в парке, намереваясь сообщить ему полные данные, но, когда Дэнни пришел, тот уже был застрелен. На следующий день к нему с обыском приходит именно Найбаум. У Роумэна находят банковские документы на крупные суммы денег. Его обвиняют в убийстве друга. Понимая, что шансов доказать свою невиновность нет, Роумэн берет Найбаума и еще трех человек в заложники.
Он не может доверять полицейским своего участка, так как знает, что среди них убийцы его напарника, и требует, чтобы в качестве переговорщика был приглашен специалист с другого участка. Сумеет ли Роумэн доказать свою невиновность?
- - Страна: США
Продолжительность: 02:19:35

Файл
Кодек: MPEG4/ISO/AVC H.264
Формат: MKV
Качество: BDRip 720p | 60 fps
Видео: 1280 x 534 (2.397) | 59.940 fps | 11.0 Мбит/сек
Аудио 1: AC3 | 5.1 | 48 kHz | 640 kbps | 16 bit | Дубляж |
Аудио 2: AC3 | 2.0 | 48 kHz | 192 kbps | 16 bit | Профессиональный (многоголосый, закадровый) Варус Видео c VHS |
Аудио 3: AC3 | 5.1 | 48 kHz | 384 kbps | 16 bit | Авторский одноголосый А.Гаврилов |
Аудио 4: AC3 | 5.1 | 48 kHz | 384 kbps | 16 bit | Авторский одноголосый Ю.Живов |
Аудио 5: AC3 | 2.0 | 48 kHz | 192 kbps | 16 bit | Авторский одноголосый Кашкин |
Аудио 6: AC3 | 5.1 | 48 kHz | 448 kbps | 16 bit | Авторский одноголосый Есарев |
Аудио 7: AC3 | 2.0 | 48 kHz | 192 kbps | 16 bit | Украинская звуковая дорожка (многоголосый, закадровый) ICTV |
Аудио 8: AC3 | 5.1 | 48 kHz | 384 kbps | 16 bit | Украинская звуковая дорожка (многоголосый, закадровый) 2+2 |
Аудио 9: AC3 | 5.1 | 48 kHz | 640 kbps | 16 bit | ENG |
Субтитры: Russian, English

MedifInfo

Видео
Идентификатор : 1
Формат : AVC
Формат/Информация : Advanced Video Codec
Профиль формата : High@L4.1
Параметр CABAC формата : Да
Параметр ReFrames формата : 3 кадра
Идентификатор кодека : V_MPEG4/ISO/AVC
Продолжительность : 2 ч. 19 м.
Вид битрейта : Переменный
Битрейт : 10,5 Мбит/сек
Максимальный битрейт : 11,0 Мбит/сек
Ширина : 1280 пикселей
Высота : 534 пикселя
Соотношение сторон : 2,40:1
Режим частоты кадров : Постоянный
Частота кадров : 59,880 кадров/сек
Частота кадров в оригинале : 59,940 кадров/сек
Стандарт вещания : PAL
Цветовое пространство : YUV
Субдискретизация насыщенности : 4:2:0
Битовая глубина : 8 бит
Тип развёртки : Прогрессивная
Бит/(Пиксели*Кадры) : 0.257
Размер потока : 10,3 Гбайт (74%)
Заголовок : www.60-fps.org
Язык : English
Default : Да
Forced : Нет
Основные цвета : BT.601 NTSC
Характеристики трансфера : BT.601
Коэффициенты матрицы : BT.601
colour_range : Limited
Аудио #1
Идентификатор : 2
Формат : AC-3
Формат/Информация : Audio Coding 3
Расширение режима : CM (complete main)
Параметр Endianness формата : Big
Идентификатор кодека : A_AC3
Продолжительность : 2 ч. 19 м.
Вид битрейта : Постоянный
Битрейт : 640 Кбит/сек
Каналы : 6 каналов
Расположение каналов : Front: L C R, Side: L R, LFE
Частота : 48,0 КГц
Битовая глубина : 16 бит
Метод сжатия : С потерями
Размер потока : 639 Мбайт (4%)
Заголовок : Дубляж
Язык : Russian
Default : Да
Forced : Нет
Аудио #2
Идентификатор : 3
Формат : AC-3
Формат/Информация : Audio Coding 3
Расширение режима : CM (complete main)
Параметр Endianness формата : Big
Идентификатор кодека : A_AC3
Продолжительность : 2 ч. 19 м.
Вид битрейта : Постоянный
Битрейт : 192 Кбит/сек
Каналы : 2 канала
Расположение каналов : Front: L R
Частота : 48,0 КГц
Битовая глубина : 16 бит
Метод сжатия : С потерями
Размер потока : 192 Мбайт (1%)
Заголовок : Профессиональный (многоголосый, закадровый) Варус Видео c VHS
Default : Нет
Forced : Нет
Аудио #3
Идентификатор : 4
Формат : AC-3
Формат/Информация : Audio Coding 3
Расширение режима : CM (complete main)
Параметр Endianness формата : Big
Идентификатор кодека : A_AC3
Продолжительность : 2 ч. 19 м.
Вид битрейта : Постоянный
Битрейт : 384 Кбит/сек
Каналы : 6 каналов
Расположение каналов : Front: L C R, Side: L R, LFE
Частота : 48,0 КГц
Битовая глубина : 16 бит
Метод сжатия : С потерями
Размер потока : 383 Мбайт (3%)
Заголовок : Авторский одноголосый А.Гаврилов
Default : Нет
Forced : Нет
Аудио #4
Идентификатор : 5
Формат : AC-3
Формат/Информация : Audio Coding 3
Расширение режима : CM (complete main)
Параметр Endianness формата : Big
Идентификатор кодека : A_AC3
Продолжительность : 2 ч. 19 м.
Вид битрейта : Постоянный
Битрейт : 384 Кбит/сек
Каналы : 6 каналов
Расположение каналов : Front: L C R, Side: L R, LFE
Частота : 48,0 КГц
Битовая глубина : 16 бит
Метод сжатия : С потерями
Размер потока : 383 Мбайт (3%)
Заголовок : Авторский одноголосый Ю.Живов
Default : Нет
Forced : Нет
Аудио #5
Идентификатор : 6
Формат : AC-3
Формат/Информация : Audio Coding 3
Расширение режима : CM (complete main)
Параметр Endianness формата : Big
Идентификатор кодека : A_AC3
Продолжительность : 2 ч. 19 м.
Вид битрейта : Постоянный
Битрейт : 192 Кбит/сек
Каналы : 2 канала
Расположение каналов : Front: L R
Частота : 48,0 КГц
Битовая глубина : 16 бит
Метод сжатия : С потерями
Размер потока : 192 Мбайт (1%)
Заголовок : Авторский одноголосый Кашкин
Default : Нет
Forced : Нет
Аудио #6
Идентификатор : 7
Формат : AC-3
Формат/Информация : Audio Coding 3
Расширение режима : CM (complete main)
Параметр Endianness формата : Big
Идентификатор кодека : A_AC3
Продолжительность : 2 ч. 19 м.
Вид битрейта : Постоянный
Битрейт : 448 Кбит/сек
Каналы : 6 каналов
Расположение каналов : Front: L C R, Side: L R, LFE
Частота : 48,0 КГц
Битовая глубина : 16 бит
Метод сжатия : С потерями
Размер потока : 447 Мбайт (3%)
Заголовок : Авторский одноголосый Есарев
Язык : Russian
Default : Нет
Forced : Нет
Аудио #7
Идентификатор : 8
Формат : AC-3
Формат/Информация : Audio Coding 3
Расширение режима : CM (complete main)
Параметр Endianness формата : Big
Идентификатор кодека : A_AC3
Продолжительность : 2 ч. 19 м.
Вид битрейта : Постоянный
Битрейт : 192 Кбит/сек
Каналы : 2 канала
Расположение каналов : Front: L R
Частота : 48,0 КГц
Битовая глубина : 16 бит
Метод сжатия : С потерями
Размер потока : 192 Мбайт (1%)
Заголовок : Украинская звуковая дорожка (многоголосый, закадровый) ICTV
Default : Нет
Forced : Нет
Аудио #8
Идентификатор : 9
Формат : AC-3
Формат/Информация : Audio Coding 3
Расширение режима : CM (complete main)
Параметр Endianness формата : Big
Идентификатор кодека : A_AC3
Продолжительность : 2 ч. 19 м.
Вид битрейта : Постоянный
Битрейт : 384 Кбит/сек
Каналы : 6 каналов
Расположение каналов : Front: L C R, Side: L R, LFE
Частота : 48,0 КГц
Битовая глубина : 16 бит
Метод сжатия : С потерями
Размер потока : 383 Мбайт (3%)
Заголовок : Украинская звуковая дорожка (многоголосый, закадровый) 2+2
Default : Нет
Forced : Нет
Аудио #9
Идентификатор : 10
Формат : AC-3
Формат/Информация : Audio Coding 3
Расширение режима : CM (complete main)
Параметр Endianness формата : Big
Идентификатор кодека : A_AC3
Продолжительность : 2 ч. 19 м.
Вид битрейта : Постоянный
Битрейт : 640 Кбит/сек
Каналы : 6 каналов
Расположение каналов : Front: L C R, Side: L R, LFE
Частота : 48,0 КГц
Битовая глубина : 16 бит
Метод сжатия : С потерями
Размер потока : 639 Мбайт (4%)
Заголовок : ENG
Язык : English
Default : Нет
Forced : Нет
Текст #1
Идентификатор : 11
Формат : UTF-8
Идентификатор кодека : S_TEXT/UTF8
Идентификатор кодека/Информация : UTF-8 Plain Text
Язык : Russian
Default : Нет
Forced : Нет
Текст #2
Идентификатор : 12
Формат : UTF-8
Идентификатор кодека : S_TEXT/UTF8
Идентификатор кодека/Информация : UTF-8 Plain Text
Язык : English
Default : Нет
Forced : Нет
Меню
00:00:00.000 : :Chapter 1
00:02:32.152 : :Chapter 2
00:06:42.568 : :Chapter 3
00:09:56.095 : :Chapter 4
00:12:10.521 : :Chapter 5
00:15:04.528 : :Chapter 6
00:18:33.862 : :Chapter 7
00:23:52.639 : :Chapter 8
00:26:27.168 : :Chapter 9
00:30:53.893 : :Chapter 10
00:34:28.983 : :Chapter 11
00:38:14.041 : :Chapter 12
00:42:33.676 : :Chapter 13
00:46:05.137 : :Chapter 14
00:50:02.582 : :Chapter 15
00:53:30.582 : :Chapter 16
00:56:40.230 : :Chapter 17
00:59:55.550 : :Chapter 18
01:02:32.957 : :Chapter 19
01:05:20.082 : :Chapter 20
01:08:21.931 : :Chapter 21
01:10:46.325 : :Chapter 22
01:13:38.205 : :Chapter 23
01:17:25.182 : :Chapter 24
01:21:29.342 : :Chapter 25
01:24:39.407 : :Chapter 26
01:29:54.639 : :Chapter 27
01:34:25.034 : :Chapter 28
01:35:47.408 : :Chapter 29
01:41:47.643 : :Chapter 30
01:46:09.905 : :Chapter 31
01:50:14.482 : :Chapter 32
01:53:52.492 : :Chapter 33
01:58:16.589 : :Chapter 34
02:02:17.538 : :Chapter 35
02:05:43.077 : :Chapter 36
02:09:11.869 : :Chapter 37
02:10:59.476 : :Chapter 38
02:14:04.703 : :Chapter 39

Релиз подготовлен 60 - fps

[Цитировать]
MichaelBFG

Спасибо за релиз! дайте скачать а то ваще никого СКРИНШОТ

[Цитировать]
lamthuyvan8714

re seed please
 
Показать сообщения:    

Текущее время: 08-Дек 19:07

Часовой пояс: UTC + 3


Вы не можете начинать темы
Вы не можете отвечать на сообщения
Вы не можете редактировать свои сообщения
Вы не можете удалять свои сообщения
Вы не можете голосовать в опросах
Вы не можете прикреплять файлы к сообщениям
Вы не можете скачивать файлы