1. Longevity:
    7 years
    Posts:
    2413
    Gender:
    Male
    «This is what the greatest comeback in sports history looks like»- Информация
    Название: Пазманский дьявол
    Оригинальное название: Bleed for This
    Год выхода: 2016
    Жанр: Драма, биография, спорт
    Режиссер: Бен Янгер
    Сценарий: Бен Янгер, Пиппа Бьянко, Анджело Пиццо
    Продюсер: Брюс Коэн, Бен Мэттью Эмпи, Дэвид Гендрон
    В ролях: Майлз Теллер, Аарон Экхарт, Кэти Сагал, Киаран Хайндс, Тед Левайн, Джордан Гелбер, Аманда Клэйтон, Дэниэл Саули, Кристин Евангелиста, Тина Каскиани
    --Сюжет:
    Винни Пациенца — один из самых выдающихся чемпионов по боксу. Молодой, яркий, безрассудный… Его называли Пазманским дьяволом. Его карьера была на самом пике, но страшная авария в одночасье разрушила все планы. Врачи говорили, что он больше никогда не сможет ходить. Однако Винни решил вернуться на ринг во что бы то ни стало.- Страна: США
    Продолжительность: 01:57:04

    Файл
    Кодек: MPEG4/ISO/AVC/H.264
    Формат: MKV
    Качество: BDRip 720p | 60 fps
    Видео: 1280 x 534 (2.397) | 59.940 fps | 8.0 Мбит/сек
    Аудио 1: AC3 | 5.1 | 48 kHz | 384 kbps | 16 bit | Дубляж - iTines |
    Аудио 2: AC3 | 5.1 | 48 kHz | 640 kbps | 16 bit | ENG |
    Субтитры: английские

    MedifInfo

    Видео
    Идентификатор : 1
    Формат : AVC
    Формат/Информация : Advanced Video Codec
    Профиль формата : [email protected]
    Параметр CABAC формата : Да
    Параметр ReFrames формата : 5 кадров
    Идентификатор кодека : V_MPEG4/ISO/AVC
    Продолжительность : 1 ч. 57 м.
    Битрейт : 7999 Кбит/сек
    Ширина : 1280 пикселей
    Высота : 534 пикселя
    Соотношение сторон : 2,40:1
    Режим частоты кадров : Постоянный
    Частота кадров : 59,880 кадров/сек
    Частота кадров в оригинале : 59,940 кадров/сек
    Цветовое пространство : YUV
    Субдискретизация насыщенности : 4:2:0
    Битовая глубина : 8 бит
    Тип развёртки : Прогрессивная
    Бит/(Пиксели*Кадры) : 0.195
    Размер потока : 6,39 Гбайт (87%)
    Заголовок : www.60-fps.org
    Библиотека кодирования : x264 core 148 r2638 7599210
    Настройки программы : cabac=1 / ref=5 / deblock=1:-3:-3 / analyse=0x3:0x113 / me=umh / subme=8 / psy=1 / psy_rd=1.00:0.25 / mixed_ref=1 / me_range=32 / chroma_me=1 / trellis=1 / 8x8dct=1 / cqm=0 / deadzone=6,6 / fast_pskip=1 / chroma_qp_offset=-4 / threads=12 / lookahead_threads=2 / sliced_threads=0 / nr=0 / decimate=0 / interlaced=0 / bluray_compat=0 / constrained_intra=0 / bframes=3 / b_pyramid=2 / b_adapt=2 / b_bias=0 / direct=3 / weightb=1 / open_gop=0 / weightp=2 / keyint=599 / keyint_min=59 / scenecut=40 / intra_refresh=0 / rc_lookahead=50 / rc=2pass / mbtree=1 / bitrate=7999 / ratetol=1.0 / qcomp=0.80 / qpmin=0 / qpmax=69 / qpstep=4 / cplxblur=20.0 / qblur=0.5 / vbv_maxrate=62500 / vbv_bufsize=78125 / nal_hrd=none / filler=0 / ip_ratio=1.10 / aq=1:0.50
    Default : Да
    Forced : Нет
    Аудио #1
    Идентификатор : 2
    Формат : AC-3
    Формат/Информация : Audio Coding 3
    Расширение режима : CM (complete main)
    Параметр Endianness формата : Big
    Идентификатор кодека : A_AC3
    Продолжительность : 1 ч. 57 м.
    Вид битрейта : Постоянный
    Битрейт : 384 Кбит/сек
    Каналы : 6 каналов
    Расположение каналов : Front: L C R, Side: L R, LFE
    Частота : 48,0 КГц
    Битовая глубина : 16 бит
    Метод сжатия : С потерями
    Размер потока : 321 Мбайт (4%)
    Заголовок : Дубляж - iTines
    Язык : Russian
    Default : Да
    Forced : Нет
    Аудио #2
    Идентификатор : 3
    Формат : AC-3
    Формат/Информация : Audio Coding 3
    Расширение режима : CM (complete main)
    Параметр Endianness формата : Big
    Идентификатор кодека : A_AC3
    Продолжительность : 1 ч. 57 м.
    Вид битрейта : Постоянный
    Битрейт : 640 Кбит/сек
    Каналы : 6 каналов
    Расположение каналов : Front: L C R, Side: L R, LFE
    Частота : 48,0 КГц
    Битовая глубина : 16 бит
    Метод сжатия : С потерями
    Размер потока : 536 Мбайт (7%)
    Заголовок : eng
    Язык : English
    Default : Нет
    Forced : Нет
    Текст #1
    Идентификатор : 4
    Формат : UTF-8
    Идентификатор кодека : S_TEXT/UTF8
    Идентификатор кодека/Информация : UTF-8 Plain Text
    Заголовок : Full
    Язык : English
    Default : Нет
    Forced : Нет
    Текст #2
    Идентификатор : 5
    Формат : UTF-8
    Идентификатор кодека : S_TEXT/UTF8
    Идентификатор кодека/Информация : UTF-8 Plain Text
    Заголовок : SDH
    Язык : English
    Default : Нет
    Forced : Нет
    Текст #3
    Идентификатор : 6
    Формат : UTF-8
    Идентификатор кодека : S_TEXT/UTF8
    Идентификатор кодека/Информация : UTF-8 Plain Text
    Заголовок : SDH [Colored]
    Язык : English
    Default : Нет
    Forced : Нет
    Меню
    00:00:00.000 : en:00:00:00.000
    00:05:14.439 : en:00:05:14.439
    00:10:26.918 : en:00:10:26.918
    00:15:01.943 : en:00:15:01.943
    00:20:58.674 : en:00:20:58.674
    00:26:32.216 : en:00:26:32.216
    00:33:33.511 : en:00:33:33.511
    00:41:22.188 : en:00:41:22.188
    00:49:25.171 : en:00:49:25.171
    00:54:04.324 : en:00:54:04.324
    00:58:46.690 : en:00:58:46.690
    01:03:30.932 : en:01:03:30.932
    01:10:14.502 : en:01:10:14.502
    01:14:14.950 : en:01:14:14.950
    01:20:23.986 : en:01:20:23.986
    01:25:27.039 : en:01:25:27.039
    01:31:45.583 : en:01:31:45.583
    01:37:03.067 : en:01:37:03.067
    01:44:24.425 : en:01:44:24.425
    01:50:24.868 : en:01:50:24.868

    Release was prepared by 60-fps.org

  2. Longevity:
    4 years 10 months
    Posts:
    2
    Gender:
    Unknown
    встаньте на раздачу плиз 2 день качаю Грущу
    09-Apr-2017 16:06 (after 1 month 6 days)


You cannot post new topics in this forum
You cannot reply to topics in this forum
You cannot edit your posts in this forum
You cannot delete your posts in this forum
You cannot vote in polls in this forum
You cannot attach files in this forum
You cannot download files in this forum