[Цитировать]
izomsk

«Чтобы сохранить будущее, он должен изменить прошлое»- Информация о фильме
Название: Патруль времени
Оригинальное название: Predestination
Год выхода: 2014
Жанр: Фантастика, Триллер, Боевик
Режиссер: Майкл Спириг, Питер Спириг
В ролях: Итэн Хоук, Сара Снук, Ноа Тейлор, Элиз Джэнсен, Фрея Стэффорд, Кристофер Кирби, Кейт Вульф, Алексис Фернандес, Люсинда Армстронг Холл, Алисия Павлис
О фильме:
Будущее. Учёные создали машину времени, и с этим изобретением мир вышел на новый виток цивилизации. Благодаря изобретению появилась возможность исправлять ошибки прошлого, чтобы сделать настоящее лучше. Также машина дала возможность предотвращать преступления до их реализации. Для этой цели были отобраны лучшие полицейские.
Главный герой — полицейский времени, который уже успел предотвратить огромное количество преступлений благодаря путешествиям сквозь время. Однако все его заслуги меркнут, потому что он неспособен остановить угрозу, намеревающуюся уничтожить Нью-Йорк.
Страна: Австралия
Продолжительность: 01:37:49
Перевод: Дубляж, Многоголосый закадровый, Одноголосый закадровый

Файл
Формат: MKV
Кодек: MPEG-4 AVC/H.264
Качество: BDRip
Видео: 1280 x 536 pixels, 59.940 fps, ~4 699 Kbps, High@L4.1
Аудио 1: AC3 2.0, 192 Kbps, Русский Дубляж (Line)
Аудио 2: AC3 5.1, 640 Kbps, Русский MVO - BaiBaKo
Аудио 3: AC3 5.1, 640 Kbps, Русский AVO - Дмитрий Есарев (без цензуры)
Аудио 4: AC3 5.1, 640 Kbps, Русский AVO - Дмитрий Есарев (цензурный)
Аудио 5: AC3 5.1, 640 Kbps, English Original
Субтитры: English Full

MediaInfo

General
Unique ID : 176411260349291417381599245035744512615 (0x84B792A87C32847CB9C2D5FC6E6BCA67)
Complete name : E:\Video\60 fps\Патруль времени\Predestination 60 720.mkv
Format : Matroska
Format version : Version 2
File size : 5.22 GiB
Duration : 1h 38mn
Overall bit rate : 7 602 Kbps
Movie name : release MediaClub - MINION
Encoded date : UTC 2014-12-27 03:32:56
Writing application : mkvmerge v3.4.0 ('Rapunzel') сборка от May 18 2010 22:32:11
Writing library : libebml v0.8.0 + libmatroska v0.9.0
Video
ID : 1
Format : AVC
Format/Info : Advanced Video Codec
Format profile : High@L4.1
Format settings, CABAC : Yes
Format settings, ReFrames : 7 frames
Codec ID : V_MPEG4/ISO/AVC
Duration : 1h 38mn
Bit rate : 4 699 Kbps
Width : 1 280 pixels
Height : 536 pixels
Display aspect ratio : 2.40:1
Frame rate mode : Constant
Frame rate : 59.940 fps
Color space : YUV
Chroma subsampling : 4:2:0
Bit depth : 8 bits
Scan type : Progressive
Bits/(Pixel*Frame) : 0.114
Stream size : 3.23 GiB (62%)
Title : Rip by izomsk
Writing library : x264 core 120 r2120kMod 0c7dab9
Encoding settings : cabac=1 / ref=7 / deblock=1:0:0 / analyse=0x3:0x113 / me=umh / subme=8 / psy=1 / fade_compensate=0.00 / psy_rd=1.00:0.00 / mixed_ref=1 / me_range=30 / chroma_me=1 / trellis=2 / 8x8dct=1 / cqm=0 / deadzone=21,11 / fast_pskip=0 / chroma_qp_offset=-2 / threads=6 / sliced_threads=1 / slices=6 / nr=0 / decimate=1 / interlaced=0 / bluray_compat=0 / constrained_intra=0 / bframes=9 / b_pyramid=2 / b_adapt=2 / b_bias=0 / direct=1 / weightb=1 / open_gop=0 / weightp=2 / keyint=600 / keyint_min=59 / scenecut=40 / intra_refresh=0 / rc=crf / mbtree=0 / crf=15.0000 / qcomp=0.60 / qpmin=10 / qpmax=51 / qpstep=4 / ip_ratio=1.40 / pb_ratio=1.30 / aq=1:1.00
Language : English
Default : Yes
Forced : No
Audio #1
ID : 2
Format : AC-3
Format/Info : Audio Coding 3
Mode extension : CM (complete main)
Format settings, Endianness : Big
Codec ID : A_AC3
Duration : 1h 38mn
Bit rate mode : Constant
Bit rate : 192 Kbps
Channel(s) : 2 channels
Channel positions : Front: L R
Sampling rate : 48.0 KHz
Bit depth : 16 bits
Compression mode : Lossy
Delay relative to video : 520ms
Stream size : 135 MiB (3%)
Title : Дубляж (Line)
Language : Russian
Default : Yes
Forced : Yes
Audio #2
ID : 3
Format : AC-3
Format/Info : Audio Coding 3
Mode extension : CM (complete main)
Format settings, Endianness : Big
Codec ID : A_AC3
Duration : 1h 38mn
Bit rate mode : Constant
Bit rate : 640 Kbps
Channel(s) : 6 channels
Channel positions : Front: L C R, Side: L R, LFE
Sampling rate : 48.0 KHz
Bit depth : 16 bits
Compression mode : Lossy
Delay relative to video : 500ms
Stream size : 450 MiB (8%)
Title : MVO - BaiBaKo
Language : Russian
Default : No
Forced : No
Audio #3
ID : 4
Format : AC-3
Format/Info : Audio Coding 3
Mode extension : CM (complete main)
Format settings, Endianness : Big
Codec ID : A_AC3
Duration : 1h 38mn
Bit rate mode : Constant
Bit rate : 640 Kbps
Channel(s) : 6 channels
Channel positions : Front: L C R, Side: L R, LFE
Sampling rate : 48.0 KHz
Bit depth : 16 bits
Compression mode : Lossy
Delay relative to video : 500ms
Stream size : 450 MiB (8%)
Title : AVO - Дмитрий Есарев (без цензуры)
Language : Russian
Default : No
Forced : No
Audio #4
ID : 5
Format : AC-3
Format/Info : Audio Coding 3
Mode extension : CM (complete main)
Format settings, Endianness : Big
Codec ID : A_AC3
Duration : 1h 38mn
Bit rate mode : Constant
Bit rate : 640 Kbps
Channel(s) : 6 channels
Channel positions : Front: L C R, Side: L R, LFE
Sampling rate : 48.0 KHz
Bit depth : 16 bits
Compression mode : Lossy
Delay relative to video : 500ms
Stream size : 450 MiB (8%)
Title : AVO - Дмитрий Есарев (цензурный)
Language : Russian
Default : No
Forced : No
Audio #5
ID : 6
Format : AC-3
Format/Info : Audio Coding 3
Mode extension : CM (complete main)
Format settings, Endianness : Big
Codec ID : A_AC3
Duration : 1h 38mn
Bit rate mode : Constant
Bit rate : 640 Kbps
Channel(s) : 6 channels
Channel positions : Front: L C R, Side: L R, LFE
Sampling rate : 48.0 KHz
Bit depth : 16 bits
Compression mode : Lossy
Delay relative to video : 350ms
Stream size : 450 MiB (8%)
Title : English Original
Language : English
Default : No
Forced : No
Text
ID : 7
Format : UTF-8
Codec ID : S_TEXT/UTF8
Codec ID/Info : UTF-8 Plain Text
Language : English
Default : No
Forced : No
Menu
00:00:00.000 : en:Chapter 1
00:06:04.655 : en:Chapter 2
00:08:31.677 : en:Chapter 3
00:15:55.537 : en:Chapter 4
00:22:33.602 : en:Chapter 5
00:28:53.273 : en:Chapter 6
00:34:25.688 : en:Chapter 7
00:41:07.631 : en:Chapter 8
00:47:33.058 : en:Chapter 9
00:52:05.372 : en:Chapter 10
00:58:46.356 : en:Chapter 11
01:05:18.831 : en:Chapter 12
01:12:06.655 : en:Chapter 13
01:17:43.116 : en:Chapter 14
01:22:50.382 : en:Chapter 15
01:29:37.955 : en:Chapter 16
Скриншоты:
[60-fps.org].t419.torrent
Торрент: Зарегистрирован [ 2015-02-13 18:49 ] · 3F70DFDAADFF382FEAC9C816116B177F2A918562

Скачать .torrent

Скачать

14 KB

Статус: проверено
Скачан: 94 раз
Поблагодарили:
Размер: 5,22 GB
 
Похожие Темы


Последний раз редактировалось: izomsk (2015-02-13 19:19), всего редактировалось 1 раз

[Цитировать]
izomsk

Приятного просмотра!

[Цитировать]
Kryl

СПАСИБО ...

[Цитировать]
mimok

Спасибо! Заждался.
Если автор не против вот дорога Дубляж (Лицензия) AC3 448кбс

Попробовал прикрутить дорогу, не айс, чуть чуть не попадает,нужно подгонять.

Задержка в 320мс подходит, это если кто решит заморочиться


Последний раз редактировалось: mimok (2015-02-14 10:22), всего редактировалось 3 раз(а)

[Цитировать]
izomsk

Конечно не против!

[Цитировать]
Fragrance

класс)
 
Показать сообщения:    

Текущее время: 24-Фев 02:23

Часовой пояс: UTC + 3


Вы не можете начинать темы
Вы не можете отвечать на сообщения
Вы не можете редактировать свои сообщения
Вы не можете удалять свои сообщения
Вы не можете голосовать в опросах
Вы не можете прикреплять файлы к сообщениям
Вы можете скачивать файлы