Топ Топиков за 24 часа
 
Стражи Галактики. Часть 2 / Guardians of the Galaxy Vol. 2 (2017) BDRip 1080p | 60 fps Чудо-женщина / Wonder Woman (2017) BDRip 1080p | 60 fps Форсаж 8 / The Fate of the Furious (2017) BDRip 1080p | 60 fps Аватар / Avatar (2009) BDRip 1080p | 120 fps | Extended Collector's Cut | Experimental Малыш на драйве / Baby Driver (2017) BDRip 1080p | 60 fps Машина времени / The Time Machine (2002) BDRip 1080p | 60 fps Трансформеры: Последний рыцарь / Transformers: The Last Knight (2017) BDRip 720p | 60 fps Матрица : Трилогия / The Matrix : Trilogy (1999-2003) BDRip-AVC | 60 fps Форсаж 8 / The Fate of the Furious (2017) BDRip 720p | 60 fps Интерстеллар / Interstellar (2014) BDRip 1080p | IMAX Edition | 60fps Мстители: Эра Альтрона / Avengers: Age of Ultron (2015) BDRip 1080p | 60 fps Призрак в доспехах / Ghost in the Shell (2017) BDRip 720p | 60 fps
  1. bot

    Стаж:
    3 года 1 месяц
    Сообщений:
    413
    Пол:
    Не указан
    -Название: Патриот
    Оригинальное название: The Patriot
    Год выпуска: 2000
    Страна: Германия, США
    Жанр: боевик, драма, военный
    Продолжительность: 02:55:19
    Перевод: Дубляж + Одноголосый закадровый на вставки
    Субтитры: русские (Форсированные), русские (Полные), английские (Полные)-Режиссер: Роланд Эммерих / Roland Emmerich-В ролях: Мэл Гибсон (Benjamin Martin), Хит Леджер (Gabriel Martin), Джоэли Ричардсон (Charlotte Selton), Джейсон Айзекс (Col. William Tavington), Крис Купер (Col. Harry Burwell), Чеки Карио (Jean Villeneuve), Рене Обержонуа (Reverend Oliver), Лиза Бреннер (Anne Howard), Том Уилкинсон (Gen. Lord Charles Cornwallis), Донал Лог (Dan Scott), Леон Риппи (John Billings), Адам Болдуин (Capt. Wilkins)-Описание:
    Когда над страной вспыхнуло смертоносное пламя страшной войны, прославленный ветеран и отец семерых детей Бенджамин Мартин остался в стороне. Но хладнокровное убийство его сына в одночасье меняет всю его жизнь.
    Жажда мести превратила воинскую науку в жестокую бойню, а мирного плантатора - в безжалостного командира самого опасного отряда повстанцев...-Рейтинг

    imdb.com: 7.10 (173 938)
    MPAA: R - Лицам до 17 лет обязательно присутствие взрослого-Автор рипа:Tiberiumsun69
    -Качество: BDRip 1080p / 60 FPS
    Формат: MKV
    Видео кодек: AVC
    Аудио кодек:AC3
    Видео: AVC, 1920x800 (2.40:1), 14000 kbps, 59,940 fps, 0,152 bpp
    Аудио №1: русский / AC3 / 2.0 / 48 kHz / 192 kbps / 16 bit |Дубляж + вставки Дмитрий Есарев|
    Аудио №2: русский / AC3 / 5.1 / 48 kHz / 448 kbps / 16 bit |Многоголосый, закадровый Киномания + вставки Есарев|
    Аудио №3: английский / AC3 / 5.1 / 48 kHz / 640 kbps / 16 bit
    Навигация по главам: есть- -

    MI

    General
    Unique ID : 236218358253582695043366366372573612462 (0xB1B6003EBF751305AF728BE9A71209AE)
    Complete name : A:1080p 60fpsПатриот 1080p 60fps.mkv
    Format : Matroska
    Format version : Version 4 / Version 2
    File size : 18.7 GiB
    Duration : 2h 55mn
    Overall bit rate : 15.3 Mbps
    Movie name : R.G. HD-Films by Tiberiumsun69 60fps
    Encoded date : UTC 2014-11-12 17:17:45
    Writing application : mkvmerge v6.9.1 ('Blue Panther') 64bit built on Apr 18 2014 18:23:38
    Writing library : libebml v1.3.0 + libmatroska v1.4.1
    Attachment : Yes
    Video
    ID : 1
    Format : AVC
    Format/Info : Advanced Video Codec
    Format profile : High@L4.1
    Format settings, CABAC : Yes
    Format settings, ReFrames : 4 frames
    Codec ID : V_MPEG4/ISO/AVC
    Duration : 2h 55mn
    Bit rate : 14.0 Mbps
    Width : 1 920 pixels
    Height : 800 pixels
    Display aspect ratio : 2.40:1
    Frame rate : 59.940 fps
    Color space : YUV
    Chroma subsampling : 4:2:0
    Bit depth : 8 bits
    Scan type : Progressive
    Bits/(Pixel*Frame) : 0.152
    Stream size : 16.8 GiB (90%)
    Title : R.G. HD-Films by Tiberiumsun69 60fps
    Writing library : x264 core 130 r2273 b3065e6
    Encoding settings : cabac=1 / ref=4 / deblock=1:-1:-1 / analyse=0x3:0 / me=umh / subme=10 / psy=1 / psy_rd=1.00:0.00 / mixed_ref=1 / me_range=32 / chroma_me=0 / trellis=2 / 8x8dct=1 / cqm=0 / deadzone=21,11 / fast_pskip=0 / chroma_qp_offset=-2 / threads=12 / lookahead_threads=1 / sliced_threads=0 / nr=0 / decimate=0 / interlaced=0 / bluray_compat=0 / constrained_intra=0 / bframes=5 / b_pyramid=2 / b_adapt=2 / b_bias=0 / direct=3 / weightb=1 / open_gop=0 / weightp=2 / keyint=250 / keyint_min=59 / scenecut=40 / intra_refresh=0 / rc_lookahead=60 / rc=2pass / mbtree=1 / bitrate=14000 / ratetol=1.0 / qcomp=0.80 / qpmin=0 / qpmax=69 / qpstep=4 / cplxblur=20.0 / qblur=0.5 / ip_ratio=1.40 / aq=1:0.80
    Language : English
    Default : Yes
    Forced : No
    Audio #1
    ID : 2
    Format : AC-3
    Format/Info : Audio Coding 3
    Mode extension : CM (complete main)
    Codec ID : A_AC3
    Duration : 2h 55mn
    Bit rate mode : Constant
    Bit rate : 192 Kbps
    Channel(s) : 2 channels
    Channel positions : Front: L R
    Sampling rate : 48.0 KHz
    Bit depth : 16 bits
    Compression mode : Lossy
    Stream size : 241 MiB (1%)
    Title : Дубляж + вставки Дмитрий Есарев
    Language : Russian
    Default : Yes
    Forced : No
    Audio #2
    ID : 3
    Format : AC-3
    Format/Info : Audio Coding 3
    Mode extension : CM (complete main)
    Codec ID : A_AC3
    Duration : 2h 55mn
    Bit rate mode : Constant
    Bit rate : 448 Kbps
    Channel(s) : 6 channels
    Channel positions : Front: L C R, Side: L R, LFE
    Sampling rate : 48.0 KHz
    Bit depth : 16 bits
    Compression mode : Lossy
    Stream size : 562 MiB (3%)
    Title : Многоголосый, закадровый Киномания + вставки Есарев
    Language : Russian
    Default : No
    Forced : No
    Audio #3
    ID : 4
    Format : AC-3
    Format/Info : Audio Coding 3
    Mode extension : CM (complete main)
    Codec ID : A_AC3
    Duration : 2h 55mn
    Bit rate mode : Constant
    Bit rate : 640 Kbps
    Channel(s) : 6 channels
    Channel positions : Front: L C R, Side: L R, LFE
    Sampling rate : 48.0 KHz
    Bit depth : 16 bits
    Compression mode : Lossy
    Stream size : 803 MiB (4%)
    Title : Оригинал
    Language : English
    Default : No
    Forced : No
    Text #1
    ID : 5
    Format : UTF-8
    Codec ID : S_TEXT/UTF8
    Codec ID/Info : UTF-8 Plain Text
    Title : Форсированные
    Language : Russian
    Default : Yes
    Forced : No
    Text #2
    ID : 6
    Format : UTF-8
    Codec ID : S_TEXT/UTF8
    Codec ID/Info : UTF-8 Plain Text
    Title : Полные
    Language : Russian
    Default : No
    Forced : No
    Text #3
    ID : 7
    Format : ASS
    Codec ID : S_TEXT/ASS
    Codec ID/Info : Advanced Sub Station Alpha
    Compression mode : Lossless
    Title : Полные
    Language : English
    Default : No
    Forced : No
    Menu
    00:00:00.000 : Chapter 00
    00:13:28.753 : Chapter 01
    00:26:50.053 : Chapter 02
    00:35:11.429 : Chapter 03
    00:41:48.034 : Chapter 04
    00:56:38.757 : Chapter 05
    01:06:26.302 : Chapter 06
    01:20:37.402 : Chapter 07
    01:28:31.167 : Chapter 08
    01:36:52.460 : Chapter 09
    01:46:54.853 : Chapter 10
    02:00:24.996 : Chapter 11
    02:07:22.663 : Chapter 12
    02:14:21.707 : Chapter 13
    02:31:39.285 : Chapter 14
    02:39:09.026 : Chapter 15

    Скриншоты

    Просьба к переливающим на другие сайты, в оформлении указывайте пожалуйста авторство рипа - Tiberiumsun69


Вы не можете начинать темы
Вы не можете отвечать на сообщения
Вы не можете редактировать свои сообщения
Вы не можете удалять свои сообщения
Вы не можете голосовать в опросах
Вы не можете прикреплять файлы к сообщениям
Вы не можете скачивать файлы