VIP

  1. bot

    Longevity:
    7 years
    Posts:
    409
    Gender:
    Unknown
    «Ничто не случайно»- Информация
    Название: Пассажиры
    Оригинальное название: Passengers
    Год выхода: 2016
    Жанр: Фантастика, драма, мелодрама, приключения
    Режиссер: Мортен Тильдум
    Сценарий: Джон Спэйтс
    Продюсер: Грег Бассер, Грег Бакстер, Брюс Берман
    В ролях: Дженнифер Лоуренс, Крис Прэтт, Майкл Шин, Лоуренс Фишборн, Энди Гарсиа, Винс Фостер, Кара Мишель Уайлдер, Конор Брофи, Джули Серда, Аврора Перрино
    --Сюжет:
    Космический корабль с 5 000 пассажирами на борту, погруженных на время полета в искусственный сон, держит курс на планету, которая станет для них новым домом. Всё идет по плану, но из-за сбоя системы двое пассажиров неожиданно просыпаются и понимают, что до конечного пункта путешествия 90 лет пути, и им суждено остаток жизни провести вдвоем в роскошных интерьерах корабля, оснащенного по последнему слову техники. Постепенно Джима и Аврору начинает непреодолимо тянуть друг к другу, но корабль попадает в беду, и теперь в их руках — жизнь и судьба всех обитателей корабля.- Страна: США
    Продолжительность: 01:56:09

    Файл
    Кодек: MPEG4/ISO/AVC H.264
    Формат: MKV
    Качество: BDRip 720p | 60 fps
    Видео: 1280x536 | 59.940 fps | 4.4 Мбит/сек
    Аудио 1: AC3 | 5.1 | 48 kHz | 640 kbps | 16 bit | Дубляж |
    Аудио 2: AC3 | 5.1 | 48 kHz | 640 kbps | 16 bit | ENG |
    Субтитры: Русские, английские

    MedifInfo

    Video
    ID : 1
    Format : AVC
    Format/Info : Advanced Video Codec
    Format profile : [email protected]
    Format settings, CABAC : Yes
    Format settings, ReFrames : 9 frames
    Codec ID : V_MPEG4/ISO/AVC
    Duration : 1 h 56 min
    Bit rate : 4 461 kb/s
    Width : 1 280 pixels
    Height : 536 pixels
    Display aspect ratio : 2.40:1
    Frame rate mode : Constant
    Frame rate : 60.000 FPS
    Color space : YUV
    Chroma subsampling : 4:2:0
    Bit depth : 8 bits
    Scan type : Progressive
    Bits/(Pixel*Frame) : 0.108
    Stream size : 3.62 GiB (76%)
    Writing library : x264 core 146 r2538 121396c
    Encoding settings : cabac=1 / ref=9 / deblock=1:0:0 / analyse=0x3:0x113 / me=umh / subme=11 / psy=1 / psy_rd=1.00:0.00 / mixed_ref=1 / me_range=24 / chroma_me=1 / trellis=2 / 8x8dct=1 / cqm=0 / deadzone=21,11 / fast_pskip=0 / chroma_qp_offset=-2 / threads=12 / lookahead_threads=1 / sliced_threads=0 / nr=0 / decimate=1 / interlaced=0 / bluray_compat=0 / constrained_intra=0 / bframes=5 / b_pyramid=2 / b_adapt=2 / b_bias=0 / direct=3 / weightb=1 / open_gop=0 / weightp=2 / keyint=250 / keyint_min=25 / scenecut=40 / intra_refresh=0 / rc_lookahead=40 / rc=crf / mbtree=0 / crf=17.0 / qcomp=0.60 / qpmin=0 / qpmax=69 / qpstep=4 / vbv_maxrate=14000 / vbv_bufsize=14000 / crf_max=0.0 / nal_hrd=none / filler=0 / ip_ratio=1.40 / pb_ratio=1.30 / aq=3:1.00
    Language : English
    Default : Yes
    Forced : No
    Audio #1
    ID : 2
    Format : AC-3
    Format/Info : Audio Coding 3
    Mode extension : CM (complete main)
    Format settings, Endianness : Big
    Codec ID : A_AC3
    Duration : 1 h 56 min
    Bit rate mode : Constant
    Bit rate : 640 kb/s
    Channel(s) : 6 channels
    Channel positions : Front: L C R, Side: L R, LFE
    Sampling rate : 48.0 kHz
    Frame rate : 31.250 FPS (1536 spf)
    Bit depth : 16 bits
    Compression mode : Lossy
    Stream size : 532 MiB (11%)
    Title : Dub
    Language : Russian
    Default : Yes
    Forced : No
    Audio #2
    ID : 3
    Format : AC-3
    Format/Info : Audio Coding 3
    Mode extension : CM (complete main)
    Format settings, Endianness : Big
    Codec ID : A_AC3
    Duration : 1 h 56 min
    Bit rate mode : Constant
    Bit rate : 640 kb/s
    Channel(s) : 6 channels
    Channel positions : Front: L C R, Side: L R, LFE
    Sampling rate : 48.0 kHz
    Frame rate : 31.250 FPS (1536 spf)
    Bit depth : 16 bits
    Compression mode : Lossy
    Stream size : 532 MiB (11%)
    Title : Eng
    Language : English
    Default : No
    Forced : No
    Text #1
    ID : 4
    Format : UTF-8
    Codec ID : S_TEXT/UTF8
    Codec ID/Info : UTF-8 Plain Text
    Title : Rus forced
    Language : Russian
    Default : Yes
    Forced : Yes
    Text #2
    ID : 5
    Format : UTF-8
    Codec ID : S_TEXT/UTF8
    Codec ID/Info : UTF-8 Plain Text
    Title : Rus full
    Language : Russian
    Default : No
    Forced : No
    Text #3
    ID : 6
    Format : UTF-8
    Codec ID : S_TEXT/UTF8
    Codec ID/Info : UTF-8 Plain Text
    Title : Eng full
    Language : English
    Default : No
    Forced : No
    Menu
    00:00:00.000 : :00:00:00.000
    00:07:04.674 : :00:07:04.674
    00:14:38.211 : :00:14:38.211
    00:20:33.649 : :00:20:33.649
    00:25:06.338 : :00:25:06.338
    00:30:30.662 : :00:30:30.662
    00:40:47.987 : :00:40:47.987
    00:50:23.020 : :00:50:23.020
    00:57:28.945 : :00:57:28.945
    01:02:54.813 : :01:02:54.813
    01:10:47.160 : :01:10:47.160
    01:17:48.664 : :01:17:48.664
    01:25:17.029 : :01:25:17.029
    01:31:45.041 : :01:31:45.041
    01:37:53.242 : :01:37:53.242
    01:42:18.549 : :01:42:18.549
  2. Longevity:
    5 years
    Posts:
    110
    Gender:
    Male
    Фильм интересный и по-своему необычный...
    А вот звук в релизе следовало бы сделать погромче, а то громкость приходится выкручивать на максимум.
  3. Longevity:
    4 years 10 months
    Posts:
    1
    Gender:
    Unknown
    Мне скучно
    14-May-2017 23:43 (after 1 month 13 days)
  4. Longevity:
    4 years 9 months
    Posts:
    45
    Gender:
    Male
    Первый раз в компании - ничего интерестного. Но все же не удалил, посмотрел второй раз, повнимательней. Сюжет, оказывается, довольно не плохой. Утопающий поистине способен совершать чудовищные поступки, однако было интерестно увидеть, как он старался приложить любые усилия, чтобы все исправить. Сцену, когда она чуть не убила его разводным ключем ночью в его номере, пересматривал почти 10 раз, ибо драматизм просто зашкаливал. Спасибо за рип
    06-Aug-2017 18:33 (after 2 months 22 days)


You cannot post new topics in this forum
You cannot reply to topics in this forum
You cannot edit your posts in this forum
You cannot delete your posts in this forum
You cannot vote in polls in this forum
You cannot attach files in this forum
You cannot download files in this forum