VIP

Новые мутанты / The New Mutants (2020) BDRip 1080p | 60 fps Грань будущего / Edge of Tomorrow (2014) BDRip 1080p | 60 fps Доктор Стрэндж / Doctor Strange (2016) BDRip 1080p | 60 fps Закат цивилизации / Extinction (2018) BDRip 1080p | 60 fps Проект Power / Project Power (2020) WEBRip 1080p | 60 fps Мулан / Mulan (2020) BDRip 1080p | 60 fps Джокер / Joker (2019) BDRip 1080p | 60 fps Интерстеллар / Interstellar (2014) BDRip 1080p | IMAX Edition | 60fps
  1. Longevity:
    6 years 7 months
    Posts:
    2414
    Gender:
    Male
    «Ничто не случайно»- Информация
    Название: Пассажиры
    Оригинальное название: Passengers
    Год выхода: 2016
    Жанр: Фантастика, драма, мелодрама, приключения
    Режиссер: Мортен Тильдум
    Сценарий: Джон Спэйтс
    Продюсер: Грег Бассер, Грег Бакстер, Брюс Берман
    В ролях: Дженнифер Лоуренс, Крис Прэтт, Майкл Шин, Лоуренс Фишборн, Энди Гарсиа, Винс Фостер, Кара Мишель Уайлдер, Конор Брофи, Джули Серда, Аврора Перрино
    --Сюжет:
    Космический корабль с 5 000 пассажирами на борту, погруженных на время полета в искусственный сон, держит курс на планету, которая станет для них новым домом. Всё идет по плану, но из-за сбоя системы двое пассажиров неожиданно просыпаются и понимают, что до конечного пункта путешествия 90 лет пути, и им суждено остаток жизни провести вдвоем в роскошных интерьерах корабля, оснащенного по последнему слову техники. Постепенно Джима и Аврору начинает непреодолимо тянуть друг к другу, но корабль попадает в беду, и теперь в их руках — жизнь и судьба всех обитателей корабля.- Страна: США
    Продолжительность: 01:56:09

    Файл
    Кодек: MPEG4/ISO/AVC H.264
    Формат: MKV
    Качество: BDRip 1080p | 60 fps
    Видео: 1920 x 800 (2.400) | 59.940 fps | 20.0 Мбит/сек
    Аудио 1: AC3 | 5.1 | 48 kHz | 384 kbps | 16 bit | Дубляж - iTunes |
    Аудио 2: AC3 | 2.0 | 48 kHz | 128 kbps | 16 bit | Дубляж - iTunes |
    Аудио 3: AC3 | 5.1 | 48 kHz | 640 kbps | 16 bit | ENG |
    Субтитры: Русские (forced, full), украинские, английские

    MedifInfo

    Видео
    Идентификатор : 1
    Формат : AVC
    Формат/Информация : Advanced Video Codec
    Профиль формата : [email protected]
    Параметр CABAC формата : Да
    Параметр ReFrames формата : 5 кадров
    Идентификатор кодека : V_MPEG4/ISO/AVC
    Продолжительность : 1 ч. 56 м.
    Битрейт : 20,0 Мбит/сек
    Ширина : 1920 пикселей
    Высота : 800 пикселей
    Соотношение сторон : 2,40:1
    Режим частоты кадров : Постоянный
    Частота кадров : 59,880 кадров/сек
    Частота кадров в оригинале : 59,940 кадров/сек
    Цветовое пространство : YUV
    Субдискретизация насыщенности : 4:2:0
    Битовая глубина : 8 бит
    Тип развёртки : Прогрессивная
    Бит/(Пиксели*Кадры) : 0.217
    Размер потока : 15,9 Гбайт (93%)
    Заголовок : www.60-fps.org
    Библиотека кодирования : x264 core 148 r2638 7599210
    Настройки программы : cabac=1 / ref=5 / deblock=1:-3:-3 / analyse=0x3:0x113 / me=umh / subme=8 / psy=1 / psy_rd=1.00:0.25 / mixed_ref=1 / me_range=32 / chroma_me=1 / trellis=1 / 8x8dct=1 / cqm=0 / deadzone=6,6 / fast_pskip=1 / chroma_qp_offset=-4 / threads=12 / lookahead_threads=2 / sliced_threads=0 / nr=0 / decimate=0 / interlaced=0 / bluray_compat=0 / constrained_intra=0 / bframes=3 / b_pyramid=2 / b_adapt=2 / b_bias=0 / direct=3 / weightb=1 / open_gop=0 / weightp=2 / keyint=599 / keyint_min=59 / scenecut=40 / intra_refresh=0 / rc_lookahead=50 / rc=2pass / mbtree=1 / bitrate=19999 / ratetol=1.0 / qcomp=0.80 / qpmin=0 / qpmax=69 / qpstep=4 / cplxblur=20.0 / qblur=0.5 / vbv_maxrate=62500 / vbv_bufsize=78125 / nal_hrd=none / filler=0 / ip_ratio=1.10 / aq=1:0.50
    Default : Да
    Forced : Нет
    Аудио #1
    Идентификатор : 2
    Формат : AC-3
    Формат/Информация : Audio Coding 3
    Расширение режима : CM (complete main)
    Параметр Endianness формата : Big
    Идентификатор кодека : A_AC3
    Продолжительность : 1 ч. 56 м.
    Вид битрейта : Постоянный
    Битрейт : 384 Кбит/сек
    Каналы : 6 каналов
    Расположение каналов : Front: L C R, Side: L R, LFE
    Частота : 48,0 КГц
    Битовая глубина : 16 бит
    Метод сжатия : С потерями
    Размер потока : 319 Мбайт (2%)
    Заголовок : Дубляж - iTunes
    Язык : Russian
    Default : Да
    Forced : Нет
    Аудио #2
    Идентификатор : 3
    Формат : AC-3
    Формат/Информация : Audio Coding 3
    Расширение режима : CM (complete main)
    Параметр Endianness формата : Big
    Идентификатор кодека : A_AC3
    Продолжительность : 1 ч. 56 м.
    Вид битрейта : Постоянный
    Битрейт : 128 Кбит/сек
    Каналы : 2 канала
    Расположение каналов : Front: L R
    Частота : 48,0 КГц
    Битовая глубина : 16 бит
    Метод сжатия : С потерями
    Задержка видео : 1 с. 0 мс.
    Размер потока : 106 Мбайт (1%)
    Заголовок : Дуюядж - iTunes
    Язык : Ukrainian
    Default : Нет
    Forced : Нет
    Аудио #3
    Идентификатор : 4
    Формат : AC-3
    Формат/Информация : Audio Coding 3
    Расширение режима : CM (complete main)
    Параметр Endianness формата : Big
    Идентификатор кодека : A_AC3
    Продолжительность : 1 ч. 56 м.
    Вид битрейта : Постоянный
    Битрейт : 640 Кбит/сек
    Каналы : 6 каналов
    Расположение каналов : Front: L C R, Side: L R, LFE
    Частота : 48,0 КГц
    Битовая глубина : 16 бит
    Метод сжатия : С потерями
    Размер потока : 532 Мбайт (3%)
    Заголовок : eng
    Язык : English
    Default : Нет
    Forced : Нет
    Текст #1
    Идентификатор : 5
    Формат : UTF-8
    Идентификатор кодека : S_TEXT/UTF8
    Идентификатор кодека/Информация : UTF-8 Plain Text
    Заголовок : Forced
    Язык : Russian
    Default : Да
    Forced : Нет
    Текст #2
    Идентификатор : 6
    Формат : UTF-8
    Идентификатор кодека : S_TEXT/UTF8
    Идентификатор кодека/Информация : UTF-8 Plain Text
    Заголовок : Full
    Язык : Russian
    Default : Нет
    Forced : Нет
    Текст #3
    Идентификатор : 7
    Формат : UTF-8
    Идентификатор кодека : S_TEXT/UTF8
    Идентификатор кодека/Информация : UTF-8 Plain Text
    Заголовок : Full
    Язык : Ukrainian
    Default : Нет
    Forced : Нет
    Текст #4
    Идентификатор : 8
    Формат : UTF-8
    Идентификатор кодека : S_TEXT/UTF8
    Идентификатор кодека/Информация : UTF-8 Plain Text
    Заголовок : Full
    Язык : English
    Default : Нет
    Forced : Нет
    Текст #5
    Идентификатор : 9
    Формат : UTF-8
    Идентификатор кодека : S_TEXT/UTF8
    Идентификатор кодека/Информация : UTF-8 Plain Text
    Заголовок : SDH
    Язык : English
    Default : Нет
    Forced : Нет
    Меню
    00:00:00.000 : en:00:00:00.000
    00:07:04.674 : en:00:07:04.674
    00:14:38.211 : en:00:14:38.211
    00:20:33.649 : en:00:20:33.649
    00:25:06.338 : en:00:25:06.338
    00:30:30.662 : en:00:30:30.662
    00:40:47.987 : en:00:40:47.987
    00:50:23.020 : en:00:50:23.020
    00:57:28.945 : en:00:57:28.945
    01:02:54.813 : en:01:02:54.813
    01:10:47.160 : en:01:10:47.160
    01:17:48.664 : en:01:17:48.664
    01:25:17.029 : en:01:25:17.029
    01:31:45.041 : en:01:31:45.041
    01:37:53.242 : en:01:37:53.242
    01:42:18.549 : en:01:42:18.549

    Release was prepared by 60-fps.org



    Last edited by Kryl on 2017-04-14 09:51; edited 1 time in total
  2. Longevity:
    6 years 6 months
    Posts:
    33
    Gender:
    Male
    Спасибо Ждал Улыбаюсь
    04-Mar-2017 11:13 (after 6 days)
  3. Longevity:
    4 years 8 months
    Posts:
    1586
    Gender:
    Male
    Kryl, БЛАГОДАРЮ,что сделал не сильно высокий битрейт,у меня на стареньком плеере тянет,сегодня буду смотреть... Хитренький
    04-Mar-2017 18:02 (after 6 hours)
  4. Longevity:
    6 years 7 months
    Posts:
    2414
    Gender:
    Male
    7527Kryl, БЛАГОДАРЮ,что сделал не сильно высокий битрейт,у меня на стареньком плеере тянет,сегодня буду смотреть... Хитренький
    Специально под тебя подстраиваю Смеюсь Смеюсь Смеюсь
    04-Mar-2017 18:23 (after 21 minute)
  5. Longevity:
    4 years 3 months
    Posts:
    7
    Gender:
    Unknown
    Хороший добрый фильм, спасибо Улыбаюсь
    09-Mar-2017 23:29 (after 5 days)
  6. Longevity:
    5 years 9 months
    Posts:
    149
    Gender:
    Male
    Огромное Спасибо Овации
    28-Mar-2017 15:00 (after 18 days)


You cannot post new topics in this forum
You cannot reply to topics in this forum
You cannot edit your posts in this forum
You cannot delete your posts in this forum
You cannot vote in polls in this forum
You cannot attach files in this forum
You cannot download files in this forum