Пассажир / The Commuter (2018) BDRip 720p | 60 fps Охота на воров / Den of Thieves (2018) BDRip 1080p | 60 fps Секретное досье / The Post (2017) BDRip 720p | 60 fps Звездные войны: Последние джедаи / Star Wars: Episode VIII - The Last Jedi (2017) BDRip 1080p | 60 fps Все деньги мира / All the Money in the World (2017) BDRip 720p | 60 fps Тоня против всех / I, Tonya (2017) BDRip 720p | 60 fps Бегущий в лабиринте: Лекарство от смерти / Maze Runner: The Death Cure (2018) BDRip 1080p | 60 fps Тайна Коко / Coco (2017) BDRip 1080p | 60 fps
  1. Стаж:
    3 года 6 месяцев
    Сообщений:
    2290
    Пол:
    Мужской
    «Осторожно, игра начинается...» Информация
    Название: Пассажир
    Оригинальное название: The Commuter
    Год выхода: 2017
    Жанр: боевик, триллер, драма, криминал, детектив
    Режиссер: Жаума Кольет-Серра
    Сценарий: Байрон Уиллингер, Фил ДиБлейси
    Продюсер: Стюарт М. Бессер, Жаума Кольет-Серра
    В ролях: Лиам Нисон, Вера Фармига, Патрик Уилсон, Джонатан Бэнкс, Сэм Нил, Элизабет МакГоверн, Киллиан Скотт, Шазад Латиф, Энди Найман, Клара Лаго

    Сюжет:
    Еще вчера его день начинался с поездки на работу в одном и том же поезде, в компании уже давно знакомых лиц, но сегодня таинственная незнакомка предлагает ему поучаствовать в эксперименте. Одна остановка, чтобы принять решение, и единственный шанс из тысячи победить. Осторожно, игра начинается…

    Страна: Великобритания, Франция, США
    Продолжительность: 01:44:55

    Файл
    Кодек: H.264
    Формат: MKV
    Качество: BDRip 720p | 60 fps
    Видео: 1280 x 534 (2.397) | 59.940 fps | 10.0 Мбит/сек
    Аудио 01: AC3 | 2.0 | 48 kHz | 384 kbps | 16 bit | Любительский - HDRezka studio |
    Аудио 02: AC3 | 5.1 | 48 kHz | 448 kbps | 16 bit | english |
    Субтитры: Русские, английские

    MedifInfo

    Видео
    Идентификатор : 1
    Формат : AVC
    Формат/Информация : Advanced Video Codec
    Профиль формата : High@L4.1
    Параметр CABAC формата : Да
    Параметр ReFrames формата : 4 кадра
    Идентификатор кодека : V_MPEG4/ISO/AVC
    Продолжительность : 1 ч. 44 м.
    Битрейт : 9999 Кбит/сек
    Ширина : 1280 пикселей
    Высота : 534 пикселя
    Соотношение сторон : 2,40:1
    Режим частоты кадров : Постоянный
    Частота кадров : 59,880 кадров/сек
    Частота кадров в оригинале : 59,940 кадров/сек
    Цветовое пространство : YUV
    Субдискретизация насыщенности : 4:2:0
    Битовая глубина : 8 бит
    Тип развёртки : Прогрессивная
    Бит/(Пиксели*Кадры) : 0.244
    Размер потока : 7,17 Гбайт (90%)
    Заголовок : www.60-fps.org
    Библиотека кодирования : x264 core 155 r2901 7d0ff22
    Настройки программы : cabac=1 / ref=3 / deblock=1:-3:-3 / analyse=0x3:0x113 / me=umh / subme=9 / psy=1 / psy_rd=1.00:0.25 / mixed_ref=1 / me_range=32 / chroma_me=1 / trellis=1 / 8x8dct=1 / cqm=0 / deadzone=6,6 / fast_pskip=1 / chroma_qp_offset=-4 / threads=12 / lookahead_threads=1 / sliced_threads=0 / nr=0 / decimate=0 / interlaced=0 / bluray_compat=0 / constrained_intra=0 / bframes=3 / b_pyramid=2 / b_adapt=1 / b_bias=0 / direct=1 / weightb=1 / open_gop=0 / weightp=2 / keyint=599 / keyint_min=59 / scenecut=40 / intra_refresh=0 / rc_lookahead=40 / rc=2pass / mbtree=1 / bitrate=9999 / ratetol=1.0 / qcomp=0.80 / qpmin=0 / qpmax=69 / qpstep=4 / cplxblur=20.0 / qblur=0.5 / vbv_maxrate=62500 / vbv_bufsize=78125 / nal_hrd=none / filler=0 / ip_ratio=1.10 / aq=1:0.50
    Default : Да
    Forced : Нет
    Аудио #1
    Идентификатор : 2
    Формат : AC-3
    Формат/Информация : Audio Coding 3
    Расширение режима : CM (complete main)
    Параметр Endianness формата : Big
    Идентификатор кодека : A_AC3
    Продолжительность : 1 ч. 44 м.
    Вид битрейта : Постоянный
    Битрейт : 384 Кбит/сек
    Каналы : 2 канала
    Расположение каналов : Front: L R
    Частота : 48,0 КГц
    Битовая глубина : 16 бит
    Метод сжатия : С потерями
    Размер потока : 288 Мбайт (4%)
    Заголовок : Многоголосый закадровый (HDRezka studio)
    Язык : Russian
    Default : Да
    Forced : Нет
    Аудио #2
    Идентификатор : 3
    Формат : AC-3
    Формат/Информация : Audio Coding 3
    Расширение режима : CM (complete main)
    Параметр Endianness формата : Big
    Идентификатор кодека : A_AC3
    Продолжительность : 1 ч. 44 м.
    Вид битрейта : Постоянный
    Битрейт : 448 Кбит/сек
    Каналы : 6 каналов
    Расположение каналов : Front: L C R, Side: L R, LFE
    Частота : 48,0 КГц
    Битовая глубина : 16 бит
    Метод сжатия : С потерями
    Размер потока : 336 Мбайт (4%)
    Заголовок : english
    Язык : English
    Default : Нет
    Forced : Нет
    Текст #1
    Идентификатор : 4
    Формат : UTF-8
    Идентификатор кодека : S_TEXT/UTF8
    Идентификатор кодека/Информация : UTF-8 Plain Text
    Язык : Russian
    Default : Нет
    Forced : Нет
    Текст #2
    Идентификатор : 5
    Формат : UTF-8
    Идентификатор кодека : S_TEXT/UTF8
    Идентификатор кодека/Информация : UTF-8 Plain Text
    Язык : English
    Default : Нет
    Forced : Нет
    Меню
    00:00:00.000 : en:00:00:00.000
    00:05:38.255 : en:00:05:38.255
    00:12:23.493 : en:00:12:23.493
    00:16:54.472 : en:00:16:54.472
    00:25:36.118 : en:00:25:36.118
    00:32:20.855 : en:00:32:20.855
    00:41:37.954 : en:00:41:37.954
    00:44:38.217 : en:00:44:38.217
    00:52:38.989 : en:00:52:38.989
    00:59:30.650 : en:00:59:30.650
    01:04:50.845 : en:01:04:50.845
    01:11:53.517 : en:01:11:53.517
    01:20:23.318 : en:01:20:23.318
    01:25:23.160 : en:01:25:23.160
    01:30:45.648 : en:01:30:45.648
    01:37:26.340 : en:01:37:26.340

    Релиз подготовлен 60 - fps

  2. Стаж:
    1 год 8 месяцев
    Сообщений:
    429
    Пол:
    Мужской
    Кайфовый фильм,советую... !
    19-Апр-2018 02:36 (спустя 4 дня)


Вы не можете начинать темы
Вы не можете отвечать на сообщения
Вы не можете редактировать свои сообщения
Вы не можете удалять свои сообщения
Вы не можете голосовать в опросах
Вы не можете прикреплять файлы к сообщениям
Вы не можете скачивать файлы