[Цитировать]
Kryl

«Подключись. Взломай. Проникни всюду. Укради всё»-- Информация о фильме
Название: Пароль «Рыба-меч»
Оригинальное название: Swordfish
Год выхода: 2001
Жанр: Боевик, триллер, криминал
Режиссер: Доминик Сена
Продюсер: Джонатан Д. Крэйн, Джоэл Силвер, Брюс Берман
Сценарий: Скип Вудс
В ролях: Джон Траволта, Хью Джекман, Холли Берри, Дон Чидл, Сэм Шепард, Винни Джонс, Дреа де Маттео, Рудольф Мартин, Зэк Гренье, Камрин Граймс
--О фильме:
Один из самых опасных шпионов в мире — харизматичный Гэбриэл Шир — работавший когда-то на ЦРУ, а ныне ставший гениальным преступником, задумывает украсть 9 миллиардов долларов из нелегальных правительственных фондов. Для этого ему нужна помощь суперхакера, способного взломать систему безопасности любой компьютерной сети. Таким умельцем является Стэнли Джобсон, который недавно отсидел срок за взлом ФБР.
В результате Джобсон остался без гроша, без любимого занятия, а главное — без любимой дочери Холли. Гэбриэл и его очаровательная партнёрша Джинджер заманивают Стэнли в своё дерзкое предприятие, обещая хакеру то, от чего он не может отказаться — в обмен на выполненную работу он получит опекунство над дочерью и шанс начать новую жизнь.
Однако, взявшись за реализацию этой сложной и рискованной операции, Стэнли вдруг понимает, что он лишь пешка в большой игре…
-Страна: США, Австралия
Продолжительность: 01:39:15
--Файл
Кодек: MPEG4/ISO/AVC H.264
Формат: MKV
Качество: BDRip 1080p
Видео: 1920 x 798 (2.406) | 59.880 fps | 20.0 Мбит/сек--Аудио 1: AC3 | 5.1 | 48 kHz | 384 kbps | 16 bit | Дубляж
Аудио 2: AC3 | 2.0| 48 kHz | 224 kbps | 16 bit | Первый канал (многоголосый закадровый)
Аудио 3: AC3 | 5.1 | 48 kHz | 448 kbps | 16 bit | Киномания (многоголосый закадровый)
Аудио 4: AC3 | 5.1 | 48 kHz | 640 kbps | 16 bit | Карусель №1 (многоголосый закадровый)
Аудио 5: AC3 | 5.1 | 48 kHz | 640 kbps | 16 bit |Карусель №2 (многоголосый закадровый)
Аудио 6: AC3 | 5.1 | 48 kHz | 640 kbps | 16 bit | А. Гаврилов (одноголосый закадровый)
Аудио 7: AC3 | 5.1 | 48 kHz | 640 kbps | 16 bit | С. Визгунов (одноголосый закадровый)
Аудио 8: AC3 | 5.1 | 48 kHz | 448 kbps | 16 bit | В. Завгородний (одноголосый закадровый) ненормативная лексика
Аудио 9: AC3 | 5.1 | 48 kHz | 640 kbps | 16 bit |английский|

MedifInfo

Видео
Идентификатор : 1
Формат : AVC
Формат/Информация : Advanced Video Codec
Профиль формата : High@L4.1
Параметр CABAC формата : Да
Параметр ReFrames формата : 5 кадров
Идентификатор кодека : V_MPEG4/ISO/AVC
Продолжительность : 1 ч. 39 м.
Битрейт : 20,0 Мбит/сек
Ширина : 1920 пикселей
Высота : 798 пикселей
Соотношение сторон : 2,40:1
Режим частоты кадров : Постоянный
Частота кадров : 59,880 кадров/сек
Частота кадров в оригинале : 59,940 кадров/сек
Цветовое пространство : YUV
Субдискретизация насыщенности : 4:2:0
Битовая глубина : 8 бит
Тип развёртки : Прогрессивная
Бит/(Пиксели*Кадры) : 0.218
Размер потока : 13,5 Гбайт (79%)
Заголовок : www.60-fps.org
Библиотека кодирования : x264 core 129 r2245 bc13772
Настройки программы : cabac=1 / ref=5 / deblock=1:-2:-2 / analyse=0x3:0x133 / me=esa / subme=9 / psy=1 / psy_rd=1.00:0.25 / mixed_ref=1 / me_range=32 / chroma_me=1 / trellis=2 / 8x8dct=1 / cqm=0 / deadzone=6,6 / fast_pskip=1 / chroma_qp_offset=-4 / threads=12 / lookahead_threads=2 / sliced_threads=0 / nr=0 / decimate=0 / interlaced=0 / bluray_compat=0 / constrained_intra=0 / bframes=3 / b_pyramid=2 / b_adapt=2 / b_bias=0 / direct=3 / weightb=1 / open_gop=0 / weightp=2 / keyint=599 / keyint_min=59 / scenecut=40 / intra_refresh=0 / rc_lookahead=60 / rc=2pass / mbtree=1 / bitrate=19999 / ratetol=1.0 / qcomp=0.80 / qpmin=0 / qpmax=69 / qpstep=4 / cplxblur=19.0 / qblur=0.0 / ip_ratio=1.10 / aq=1:0.50
Язык : English
Default : Нет
Forced : Нет
Аудио #1
Идентификатор : 2
Формат : AC-3
Формат/Информация : Audio Coding 3
Расширение режима : CM (complete main)
Параметр Endianness формата : Big
Идентификатор кодека : A_AC3
Продолжительность : 1 ч. 39 м.
Вид битрейта : Постоянный
Битрейт : 384 Кбит/сек
Каналы : 6 каналов
Расположение каналов : Front: L C R, Side: L R, LFE
Частота : 48,0 КГц
Битовая глубина : 16 бит
Метод сжатия : С потерями
Размер потока : 273 Мбайт (2%)
Заголовок : dub
Default : Да
Forced : Да
Аудио #2
Идентификатор : 3
Формат : AC-3
Формат/Информация : Audio Coding 3
Расширение режима : CM (complete main)
Параметр Endianness формата : Big
Идентификатор кодека : A_AC3
Продолжительность : 1 ч. 39 м.
Вид битрейта : Постоянный
Битрейт : 224 Кбит/сек
Каналы : 2 канала
Расположение каналов : Front: L R
Частота : 48,0 КГц
Битовая глубина : 16 бит
Метод сжатия : С потерями
Размер потока : 159 Мбайт (1%)
Заголовок : 1 kanal
Default : Нет
Forced : Нет
Аудио #3
Идентификатор : 4
Формат : AC-3
Формат/Информация : Audio Coding 3
Расширение режима : CM (complete main)
Параметр Endianness формата : Big
Идентификатор кодека : A_AC3
Продолжительность : 1 ч. 39 м.
Вид битрейта : Постоянный
Битрейт : 448 Кбит/сек
Каналы : 6 каналов
Расположение каналов : Front: L C R, Side: L R, LFE
Частота : 48,0 КГц
Битовая глубина : 16 бит
Метод сжатия : С потерями
Размер потока : 318 Мбайт (2%)
Заголовок : kinomaniy
Default : Нет
Forced : Нет
Аудио #4
Идентификатор : 5
Формат : AC-3
Формат/Информация : Audio Coding 3
Расширение режима : CM (complete main)
Параметр Endianness формата : Big
Идентификатор кодека : A_AC3
Продолжительность : 1 ч. 39 м.
Вид битрейта : Постоянный
Битрейт : 640 Кбит/сек
Каналы : 6 каналов
Расположение каналов : Front: L C R, Side: L R, LFE
Частота : 48,0 КГц
Битовая глубина : 16 бит
Метод сжатия : С потерями
Размер потока : 454 Мбайт (3%)
Заголовок : karusel-1
Default : Нет
Forced : Нет
Аудио #5
Идентификатор : 6
Формат : AC-3
Формат/Информация : Audio Coding 3
Расширение режима : CM (complete main)
Параметр Endianness формата : Big
Идентификатор кодека : A_AC3
Продолжительность : 1 ч. 39 м.
Вид битрейта : Постоянный
Битрейт : 640 Кбит/сек
Каналы : 6 каналов
Расположение каналов : Front: L C R, Side: L R, LFE
Частота : 48,0 КГц
Битовая глубина : 16 бит
Метод сжатия : С потерями
Размер потока : 454 Мбайт (3%)
Заголовок : karusel-2
Default : Нет
Forced : Нет
Аудио #6
Идентификатор : 7
Формат : AC-3
Формат/Информация : Audio Coding 3
Расширение режима : CM (complete main)
Параметр Endianness формата : Big
Идентификатор кодека : A_AC3
Продолжительность : 1 ч. 39 м.
Вид битрейта : Постоянный
Битрейт : 640 Кбит/сек
Каналы : 6 каналов
Расположение каналов : Front: L C R, Side: L R, LFE
Частота : 48,0 КГц
Битовая глубина : 16 бит
Метод сжатия : С потерями
Размер потока : 454 Мбайт (3%)
Заголовок : Gavrilov
Default : Нет
Forced : Нет
Аудио #7
Идентификатор : 8
Формат : AC-3
Формат/Информация : Audio Coding 3
Расширение режима : CM (complete main)
Параметр Endianness формата : Big
Идентификатор кодека : A_AC3
Продолжительность : 1 ч. 39 м.
Вид битрейта : Постоянный
Битрейт : 640 Кбит/сек
Каналы : 6 каналов
Расположение каналов : Front: L C R, Side: L R, LFE
Частота : 48,0 КГц
Битовая глубина : 16 бит
Метод сжатия : С потерями
Размер потока : 454 Мбайт (3%)
Заголовок : Vizgunov
Default : Нет
Forced : Нет
Аудио #8
Идентификатор : 9
Формат : AC-3
Формат/Информация : Audio Coding 3
Расширение режима : CM (complete main)
Параметр Endianness формата : Big
Идентификатор кодека : A_AC3
Продолжительность : 1 ч. 39 м.
Вид битрейта : Постоянный
Битрейт : 448 Кбит/сек
Каналы : 6 каналов
Расположение каналов : Front: L C R, Side: L R, LFE
Частота : 48,0 КГц
Битовая глубина : 16 бит
Метод сжатия : С потерями
Размер потока : 318 Мбайт (2%)
Заголовок : Zavgorodskii
Default : Нет
Forced : Нет
Аудио #9
Идентификатор : 10
Формат : AC-3
Формат/Информация : Audio Coding 3
Расширение режима : CM (complete main)
Параметр Endianness формата : Big
Идентификатор кодека : A_AC3
Продолжительность : 1 ч. 39 м.
Вид битрейта : Постоянный
Битрейт : 640 Кбит/сек
Каналы : 6 каналов
Расположение каналов : Front: L C R, Side: L R, LFE
Частота : 48,0 КГц
Битовая глубина : 16 бит
Метод сжатия : С потерями
Размер потока : 454 Мбайт (3%)
Заголовок : enr
Default : Нет
Forced : Нет

Релиз подготовлен 60 - fps



Последний раз редактировалось: Kryl (2016-05-16 21:09), всего редактировалось 2 раз(а)

[Цитировать]
Kryl

Оживил старенькую раздачу.

[Цитировать]
kiryandr

5858Оживил старенькую раздачу.
Да
 
Показать сообщения:    

Текущее время: 21-Сен 15:31

Часовой пояс: UTC + 3


Вы не можете начинать темы
Вы не можете отвечать на сообщения
Вы не можете редактировать свои сообщения
Вы не можете удалять свои сообщения
Вы не можете голосовать в опросах
Вы не можете прикреплять файлы к сообщениям
Вы не можете скачивать файлы