1. Longevity:
    5 years 2 months
    Posts:
    1681
    Gender:
    Male
    Фильм «To get away clean, you have to play dirty» Фильм- Информация
    Название: Паркер
    Оригинальное название: Parker
    Год выхода: 2013
    Жанр: боевик, триллер, мелодрама, криминал
    Режиссер: Тейлор Хэкфорд
    Сценарий: Джон Дж. МакЛафлин, Дональд Э. Уэстлейк
    Продюсер: Лес Александр, Стив Чесман, Тейлор Хэкфорд
    В ролях: Джейсон Стэйтем,Дженнифер Лопез,Майкл Чиклис,Ник Нолти,Эмма Бут,Мика Хауптман,Уенделл Пирс,Клифтон Коллинз мл.,Дэниэл Бернхард,Бобби Каннавале
    --Сюжет:
    Главный герой — профессиональный вор, руководствующийся собственным моральным кодексом, но способный запросто отправить на тот свет любого, кто перейдет ему дорогу.-- Страна: США
    Продолжительность: 01:58:40

    Файл
    Кодек: MPEG4/ISO/AVC H.264
    Формат: MKV
    Качество: BDRip 720p | 60 fps
    Видео: 1280 x 528 (2.424) | 60.0 fps | 4756 Кбит/сек
    Аудио 1: AC3 | 5.1 | 48 kHz | 384 Кбит/сек | 16 bit | Дубляж |
    Субтитры: Russian

    MedifInfo

    Видео
    Идентификатор : 1
    Формат : AVC
    Формат/Информация : Advanced Video Codec
    Профиль формата : [email protected]
    Параметр CABAC формата : Да
    Параметр ReFrames формата : 4 кадра
    Идентификатор кодека : V_MPEG4/ISO/AVC
    Продолжительность : 1 ч. 58 м.
    Битрейт : 4756 Кбит/сек
    Ширина : 1280 пикселей
    Высота : 528 пикселей
    Соотношение сторон : 2,40:1
    Режим частоты кадров : Постоянный
    Частота кадров : 59,940 кадров/сек
    Цветовое пространство : YUV
    Субдискретизация насыщенности : 4:2:0
    Битовая глубина : 8 бит
    Тип развёртки : Прогрессивная
    Бит/(Пиксели*Кадры) : 0.117
    Размер потока : 3,86 Гбайт (91%)
    Заголовок : Parker (2013) BDRip 720p (60Fps).mkv
    Библиотека кодирования : x264 core 130 r2273 b3065e6
    Настройки программы : cabac=1 / ref=4 / deblock=1:-3:-3 / analyse=0x3:0x113 / me=umh / subme=8 / psy=1 / psy_rd=1.00:0.00 / mixed_ref=1 / me_range=24 / chroma_me=1 / trellis=2 / 8x8dct=1 / cqm=0 / deadzone=21,11 / fast_pskip=1 / chroma_qp_offset=-2 / threads=3 / lookahead_threads=1 / sliced_threads=0 / nr=0 / decimate=1 / interlaced=0 / bluray_compat=0 / constrained_intra=0 / bframes=4 / b_pyramid=2 / b_adapt=2 / b_bias=0 / direct=3 / weightb=1 / open_gop=0 / weightp=2 / keyint=250 / keyint_min=25 / scenecut=40 / intra_refresh=0 / rc_lookahead=50 / rc=2pass / mbtree=1 / bitrate=4756 / ratetol=1.0 / qcomp=0.60 / qpmin=0 / qpmax=69 / qpstep=4 / cplxblur=20.0 / qblur=0.5 / ip_ratio=1.40 / aq=1:1.00
    Язык : English
    Default : Да
    Forced : Нет
    Аудио
    Идентификатор : 2
    Формат : AC-3
    Формат/Информация : Audio Coding 3
    Расширение режима : CM (complete main)
    Параметр Endianness формата : Big
    Идентификатор кодека : A_AC3
    Продолжительность : 1 ч. 58 м.
    Вид битрейта : Постоянный
    Битрейт : 384 Кбит/сек
    Каналы : 6 каналов
    Расположение каналов : Front: L C R, Side: L R, LFE
    Частота : 48,0 КГц
    Частота кадров : 31,250 кадров/сек (1536 spf)
    Битовая глубина : 16 бит
    Метод сжатия : С потерями
    Размер потока : 326 Мбайт (7%)
    Заголовок : Dub
    Язык : Russian
    Default : Да
    Forced : Нет
    Текст #1
    Идентификатор : 3
    Формат : UTF-8
    Идентификатор кодека : S_TEXT/UTF8
    Идентификатор кодека/Информация : UTF-8 Plain Text
    Заголовок : Rus (Forced)
    Язык : Russian
    Default : Нет
    Forced : Нет
    Текст #2
    Идентификатор : 4
    Формат : UTF-8
    Идентификатор кодека : S_TEXT/UTF8
    Идентификатор кодека/Информация : UTF-8 Plain Text
    Заголовок : Rus
    Язык : Russian
    Default : Нет
    Forced : Нет
    Меню
    00:00:00.000 : en:Chapter 01
    00:06:14.707 : en:Chapter 02
    00:14:00.923 : en:Chapter 03
    00:19:29.585 : en:Chapter 04
    00:26:25.000 : en:Chapter 05
    00:31:46.487 : en:Chapter 06
    00:38:26.804 : en:Chapter 07
    00:42:27.920 : en:Chapter 08
    00:49:46.274 : en:Chapter 09
    00:55:07.637 : en:Chapter 10
    01:01:11.376 : en:Chapter 11
    01:06:21.560 : en:Chapter 12
    01:11:51.348 : en:Chapter 13
    01:22:34.532 : en:Chapter 14
    01:30:46.274 : en:Chapter 15
    01:38:12.219 : en:Chapter 16


You cannot post new topics in this forum
You cannot reply to topics in this forum
You cannot edit your posts in this forum
You cannot delete your posts in this forum
You cannot vote in polls in this forum
You cannot attach files in this forum
You cannot download files in this forum