[Цитировать]
Талямба

Фильм «To get away clean, you have to play dirty» Фильм- Информация
Название: Паркер
Оригинальное название: Parker
Год выхода: 2013
Жанр: боевик, триллер, мелодрама, криминал
Режиссер: Тейлор Хэкфорд
Сценарий: Джон Дж. МакЛафлин, Дональд Э. Уэстлейк
Продюсер: Лес Александр, Стив Чесман, Тейлор Хэкфорд
В ролях: Джейсон Стэйтем,Дженнифер Лопез,Майкл Чиклис,Ник Нолти,Эмма Бут,Мика Хауптман,Уенделл Пирс,Клифтон Коллинз мл.,Дэниэл Бернхард,Бобби Каннавале
--Сюжет:
Главный герой — профессиональный вор, руководствующийся собственным моральным кодексом, но способный запросто отправить на тот свет любого, кто перейдет ему дорогу.-- Страна: США
Продолжительность: 01:58:38

Файл
Кодек: MPEG4/ISO/AVC H.264
Формат: MKV
Качество: BDRip 1080p | 60 fps
Видео: 1920 x 796 (2.412) | 60.0 fps | 15,6 Мбит/сек
Аудио 1: AC3 | 5.1 | 48 kHz | 448 kbps | 16 bit | Дубляж |
Аудио 2: AC3 | 5.1 | 48 kHz | 448 kbps | 16 bit | ENG |
Субтитры: English,Russian

MedifInfo

Видео
Идентификатор : 1
Формат : AVC
Формат/Информация : Advanced Video Codec
Профиль формата : Main@L5.1
Параметр CABAC формата : Да
Параметр ReFrames формата : 2 кадра
Идентификатор кодека : V_MPEG4/ISO/AVC
Продолжительность : 1 ч. 58 м.
Битрейт : 15,6 Мбит/сек
Ширина : 1920 пикселей
Высота : 796 пикселей
Соотношение сторон : 2,40:1
Режим частоты кадров : Постоянный
Частота кадров : 60,000 кадров/сек
Цветовое пространство : YUV
Субдискретизация насыщенности : 4:2:0
Битовая глубина : 8 бит
Тип развёртки : Прогрессивная
Бит/(Пиксели*Кадры) : 0.170
Размер потока : 12,9 Гбайт (93%)
Заголовок : Parker 2013 1080p BDRip 60fps WMP
Default : Да
Forced : Нет
Аудио #1
Идентификатор : 2
Формат : AC-3
Формат/Информация : Audio Coding 3
Расширение режима : CM (complete main)
Параметр Endianness формата : Big
Идентификатор кодека : A_AC3
Продолжительность : 1 ч. 58 м.
Вид битрейта : Постоянный
Битрейт : 448 Кбит/сек
Каналы : 6 каналов
Расположение каналов : Front: L C R, Side: L R, LFE
Частота : 48,0 КГц
Битовая глубина : 16 бит
Метод сжатия : С потерями
Задержка видео : 31 мс.
Размер потока : 380 Мбайт (3%)
Заголовок : Rus AC3 6ch 48kHz - 448kbps (DUB)
Язык : Russian
Default : Да
Forced : Нет
Аудио #2
Идентификатор : 3
Формат : AC-3
Формат/Информация : Audio Coding 3
Расширение режима : CM (complete main)
Параметр Endianness формата : Big
Идентификатор кодека : A_AC3
Продолжительность : 1 ч. 58 м.
Вид битрейта : Постоянный
Битрейт : 448 Кбит/сек
Каналы : 6 каналов
Расположение каналов : Front: L C R, Side: L R, LFE
Частота : 48,0 КГц
Битовая глубина : 16 бит
Метод сжатия : С потерями
Задержка видео : 31 мс.
Размер потока : 380 Мбайт (3%)
Заголовок : Eng AC3 6ch 48kHz - 448kbps (ORIGINAL)
Язык : English
Default : Нет
Forced : Нет
Текст #1
Идентификатор : 4
Формат : UTF-8
Идентификатор кодека : S_TEXT/UTF8
Идентификатор кодека/Информация : UTF-8 Plain Text
Заголовок : Rus Text UTF-8
Язык : Russian
Default : Нет
Forced : Нет
Текст #2
Идентификатор : 5
Формат : UTF-8
Идентификатор кодека : S_TEXT/UTF8
Идентификатор кодека/Информация : UTF-8 Plain Text
Заголовок : Eng Text UTF-8
Язык : English
Default : Нет
Forced : Нет

[Цитировать]
Kryl

Да , уж ... где раздача ????

[Цитировать]
Талямба

сорян,свет вырубали,почти весь день не было... Краснею

[Цитировать]
tdi_diesel88

Встань на раздачу пожалуйста , неделю уже скачать не могу((((

[Цитировать]
Талямба

tdi_diesel88, к сожалению диск был потерян по техническим причинам и пока этого фильма нет,раздать не могу его,в течение месяца думаю востановлю,но пока прошу прощения... Кулачки

[Цитировать]
Талямба

А может на недели востановлю в среду скажу точно... Подмигиваю

[Цитировать]
tdi_diesel88

8368А может на недели востановлю в среду скажу точно... Подмигиваю
отлично))))))
 
Показать сообщения:    

Текущее время: 21-Сен 11:39

Часовой пояс: UTC + 3


Вы не можете начинать темы
Вы не можете отвечать на сообщения
Вы не можете редактировать свои сообщения
Вы не можете удалять свои сообщения
Вы не можете голосовать в опросах
Вы не можете прикреплять файлы к сообщениям
Вы не можете скачивать файлы