Топ Топиков за 24 часа
 
Джон Уик 2 / John Wick: Chapter Two (2017) BDRip 720p | 60 fps Форсаж 8 / The Fate of the Furious (2017) BDRip 1080p | 60 fps Стражи Галактики. Часть 2 / Guardians of the Galaxy Vol. 2 (2017) BDRip 1080p | 60 fps Великая стена / The Great Wall (2016) BDRip 1080p | 60 fps Призрак в доспехах / Ghost in the Shell (2017) BDRip 1080p | 60 fps Форсаж 8 / The Fate of the Furious (2017) BDRip 720p | 60 fps Варкрафт / Warcraft (2016) BDRip 1080p | 60 fps Доктор Стрэндж / Doctor Strange (2016) BDRip 1080p | 60 fps Конг: Остров черепа / Kong: Skull Island (2017) BDRip 1080p | 60 fps Аватар / Avatar (2009) BDRip 1080p | 120 fps | Extended Collector's Cut | Experimental Чужой: Завет / Alien: Covenant (2016) BDRip 720p | 60 fps Логан / Logan (2017) BDRip 1080p | 60 fps
  1. bot

    Стаж:
    3 года 1 месяц
    Сообщений:
    413
    Пол:
    Не указан

    Парк Юрского периода

    -Название: Парк Юрского периода / Jurassic Park
    Оригинальное название: Парк Юрского периода / Jurassic Park
    Год выпуска: 1993
    Страна: США
    Жанр: приключения, фантастика, семейный
    Продолжительность: 02:06:36
    Перевод: Профессиональный многоголосый
    Субтитры:Русские (Полные), английские (полные)
    Вид субтитров Вшитые, отключаемые
    Главы Есть-Режиссер: Стивен Спилберг / Steven Spielberg-В ролях: Сэм Нил (Dr. Alan Grant), Лора Дерн (Dr. Ellie Sattler), Джефф Голдблюм (Dr. Ian Malcolm), Ричард Аттенборо (John Hammond), Джозеф Маццелло (Tim Murphy), Ариана Ричардс (Lex Murphy), Уэйн Найт (Dennis Nedry), Боб Пек (Robert Muldoon), Мартин Ферреро (Donald Gennaro), Сэмюэл Л. Джексон (Ray Arnold), Б.Д. Вонг (Henry Wu), Джералд Р. Молен (Gerry Harding)-Описание:
    Экспансивный богач и профессор уговаривает пару ученых-палеонтологов приехать на остров у побережья Коста-Рики, где он устроил реликтовый парк. В парке этом водятся древние зверушки - динозавры, которые по его идее и должны стать гвоздем программы нового аттракциона.
    До открытия остается несколько дней, а один из работников, пытаясь продать «рассаду» налево, нарушает систему охраны, что в комплексе с грозовым ливнем приводит к тому, что доисторические животные оказываются на воле, где действуют в соответствии со своими инстинктами.-Рейтинг

    imdb.com: 8.00 (407 683)
    MPAA: PG-13 - Детям до 13 лет просмотр не желателен-Качество: BDRip 1080p / 60 FPS
    Формат: MKV
    Видео кодек: AVC
    Аудио кодек:AC3
    Видео: AVC, 1920x1040 (16:9), 14824 kbps, 59,940 fps, 0,124 bpp
    Аудио №1: русский / AC3 / 5.1 / 48 kHz / 448 kbps / 16 bit |Многоголосный, закадровый Пифагор|
    Аудио №2: русский / AC3 / 5.1 / 48 kHz / 448 kbps / 16 bit |Многоголосный, закадровый Киномания|
    Аудио №3: английский / AC3 / 5.1 / 48 kHz / 640 kbps / 16 bit- -

    MI

    General
    Unique ID : 217723646829275489563460506191491539438 (0xA3CC0C92031F2940BF667F6B1444A1EE)
    Complete name : A:1080p 60fpsПарк Юрского периода 1080p 60fpsПарк Юрского периода 1 1080p 60fps.mkv
    Format : Matroska
    Format version : Version 4 / Version 2
    File size : 14.8 GiB
    Duration : 2h 6mn
    Overall bit rate : 16.7 Mbps
    Encoded date : UTC 2014-09-07 14:18:04
    Writing application : mkvmerge v6.9.1 ('Blue Panther') 64bit built on Apr 18 2014 18:23:38
    Writing library : libebml v1.3.0 + libmatroska v1.4.1
    Video
    ID : 1
    Format : AVC
    Format/Info : Advanced Video Codec
    Format profile : High@L4.1
    Format settings, CABAC : Yes
    Format settings, ReFrames : 4 frames
    Codec ID : V_MPEG4/ISO/AVC
    Duration : 2h 6mn
    Bit rate : 14.8 Mbps
    Width : 1 920 pixels
    Height : 1 040 pixels
    Display aspect ratio : 16:9
    Frame rate : 59.940 fps
    Color space : YUV
    Chroma subsampling : 4:2:0
    Bit depth : 8 bits
    Scan type : Progressive
    Bits/(Pixel*Frame) : 0.124
    Stream size : 13.1 GiB (89%)
    Writing library : x264 core 133 r2334 a3ac64b
    Encoding settings : cabac=1 / ref=4 / deblock=1:-1:-1 / analyse=0x3:0 / me=umh / subme=9 / psy=1 / psy_rd=1.00:0.10 / mixed_ref=1 / me_range=42 / chroma_me=0 / trellis=2 / 8x8dct=1 / cqm=0 / deadzone=21,11 / fast_pskip=0 / chroma_qp_offset=-3 / threads=12 / lookahead_threads=1 / sliced_threads=0 / nr=0 / decimate=0 / interlaced=0 / bluray_compat=0 / constrained_intra=0 / bframes=5 / b_pyramid=2 / b_adapt=2 / b_bias=0 / direct=1 / weightb=1 / open_gop=0 / weightp=2 / keyint=594 / keyint_min=59 / scenecut=40 / intra_refresh=0 / rc=crf / mbtree=0 / crf=18.0 / qcomp=0.60 / qpmin=0 / qpmax=69 / qpstep=4 / ip_ratio=1.40 / pb_ratio=1.30 / aq=0
    Language : English
    Default : Yes
    Forced : No
    Audio #1
    ID : 2
    Format : AC-3
    Format/Info : Audio Coding 3
    Mode extension : CM (complete main)
    Codec ID : A_AC3
    Duration : 2h 6mn
    Bit rate mode : Constant
    Bit rate : 448 Kbps
    Channel(s) : 6 channels
    Channel positions : Front: L C R, Side: L R, LFE
    Sampling rate : 48.0 KHz
    Bit depth : 16 bits
    Compression mode : Lossy
    Stream size : 406 MiB (3%)
    Title : Многоголосный, закадровый Пифагор
    Language : Russian
    Default : Yes
    Forced : No
    Audio #2
    ID : 3
    Format : AC-3
    Format/Info : Audio Coding 3
    Mode extension : CM (complete main)
    Codec ID : A_AC3
    Duration : 2h 6mn
    Bit rate mode : Constant
    Bit rate : 448 Kbps
    Channel(s) : 6 channels
    Channel positions : Front: L C R, Side: L R, LFE
    Sampling rate : 48.0 KHz
    Bit depth : 16 bits
    Compression mode : Lossy
    Stream size : 406 MiB (3%)
    Title : Многоголосный, закадровый Киномания
    Language : Russian
    Default : No
    Forced : No
    Audio #3
    ID : 4
    Format : AC-3
    Format/Info : Audio Coding 3
    Mode extension : CM (complete main)
    Codec ID : A_AC3
    Duration : 2h 6mn
    Bit rate mode : Constant
    Bit rate : 640 Kbps
    Channel(s) : 6 channels
    Channel positions : Front: L C R, Side: L R, LFE
    Sampling rate : 48.0 KHz
    Bit depth : 16 bits
    Compression mode : Lossy
    Stream size : 580 MiB (4%)
    Title : Оригинал
    Language : English
    Default : No
    Forced : No
    Text #1
    ID : 5
    Format : UTF-8
    Codec ID : S_TEXT/UTF8
    Codec ID/Info : UTF-8 Plain Text
    Title : Полные
    Language : Russian
    Default : No
    Forced : No
    Text #2
    ID : 6
    Format : UTF-8
    Codec ID : S_TEXT/UTF8
    Codec ID/Info : UTF-8 Plain Text
    Title : Полные
    Language : English
    Default : No
    Forced : No
    Menu
    00:00:00.000 : en:Chapter 1
    00:05:19.819 : en:Chapter 2
    00:10:14.739 : en:Chapter 3
    00:15:17.041 : en:Chapter 4
    00:19:33.213 : en:Chapter 5
    00:23:46.800 : en:Chapter 6
    00:31:40.148 : en:Chapter 7
    00:37:59.193 : en:Chapter 8
    00:40:26.674 : en:Chapter 9
    00:55:28.033 : en:Chapter 10
    01:01:43.241 : en:Chapter 11
    01:10:44.114 : en:Chapter 12
    01:20:01.129 : en:Chapter 13
    01:34:03.971 : en:Chapter 14
    01:39:45.312 : en:Chapter 15
    01:43:43.175 : en:Chapter 16
    01:47:56.845 : en:Chapter 17
    01:54:45.378 : en:Chapter 18
    01:58:04.410 : en:Chapter 19
    01:59:55.980 : en:Chapter 20
    02:06:36.338 : en:Chapter 21

    Скриншоты

    Парк Юрского периода 2: Затерянный мир

    -Название: Парк Юрского периода 2: Затерянный мир / The Lost World: Jurassic Park
    Оригинальное название: Парк Юрского периода 2: Затерянный мир / The Lost World: Jurassic Park
    Год выпуска: 1997
    Страна: США
    Жанр: фантастика, боевик, приключения
    Продолжительность: 02:08:40
    Перевод: Дубляж
    Субтитры:Русские (Полные), английские (полные)
    Вид субтитров Вшитые, отключаемые
    Главы Есть-Режиссер: Стивен Спилберг / Steven Spielberg-В ролях: Джефф Голдблюм (Ian Malcolm), Джулианна Мур (Sarah Harding), Винс Вон (Nick Van Owen), Ванесса Ли Честер (Kelly Curtis), Пит Постлетуэйт (Roland Tembo), Арлисс Ховард (Peter Ludlow), Ричард Аттенборо (John Hammond), Ричард Шифф (Eddie Carr), Петер Стормаре (Dieter Stark), Харви Джейсон (Ajay Sidhu), Томас Ф. Даффи (Dr. Robert Burke), Джозеф Маццелло (Tim)-Описание:
    События этого фильма разворачиваются через четыре года после того, что произошло в «Парке Юрского периода». На близлежащем острове динозавры выжили и адаптировались к дикой природе. Но вот находится Некто, кто хочет перевезти их на материк и заработать на этом, не понимая, какими могут быть последствия, и посылает на остров своих людей.
    Джон Хэммонд, который потерял контроль над своей компанией, считает, что у него появился шанс исправить свои прошлые ошибки. Он, в свою очередь, снаряжает экспедицию во главе с Яном Малкольмом, чтобы появиться там до высадки наемников.
    В результате происходящих событий две эти конфликтующие группы вынуждены объединиться перед лицом смертельной опасности. И, как потом выясняется, времени им отпущено совсем немного.-Рейтинг

    imdb.com: 6.40 (197 253)
    MPAA: PG-13 - Детям до 13 лет просмотр не желателен-Качество: BDRip 1080p / 60 FPS
    Формат: MKV
    Видео кодек: AVC
    Аудио кодек:AC3
    Видео: AVC, 1920x1040 (16:9), 13304 kbps, 59,940 fps, 0,111 bpp
    Аудио №1: русский / AC3 / 2.0 / 48 kHz / 256 kbps / 16 bit |Дубляж|
    Аудио №2: русский / AC3 / 5.1 / 48 kHz / 640 kbps / 16 bit |Многоголосый, закадровый Пифагор|
    Аудио №3: русский / AC3 / 5.1 / 48 kHz / 448 kbps / 16 bit |Многоголосый, закадровый Киномания|
    Аудио №4: английский / AC3 / 5.1 / 48 kHz / 640 kbps / 16 bit- -

    MI

    General
    Unique ID : 197366416038583863382249787155439664679 (0x947B6399DCDF8181B434C0AD8907BE27)
    Complete name : A:1080p 60fpsПарк Юрского периода 1080p 60fpsПарк Юрского периода 2 1080p 60fps.mkv
    Format : Matroska
    Format version : Version 4 / Version 2
    File size : 14.0 GiB
    Duration : 2h 8mn
    Overall bit rate : 15.6 Mbps
    Encoded date : UTC 2014-09-13 07:02:03
    Writing application : mkvmerge v6.9.1 ('Blue Panther') 64bit built on Apr 18 2014 18:23:38
    Writing library : libebml v1.3.0 + libmatroska v1.4.1
    Video
    ID : 1
    Format : AVC
    Format/Info : Advanced Video Codec
    Format profile : High@L4.1
    Format settings, CABAC : Yes
    Format settings, ReFrames : 4 frames
    Codec ID : V_MPEG4/ISO/AVC
    Duration : 2h 8mn
    Bit rate : 13.3 Mbps
    Width : 1 920 pixels
    Height : 1 040 pixels
    Display aspect ratio : 16:9
    Frame rate : 59.940 fps
    Color space : YUV
    Chroma subsampling : 4:2:0
    Bit depth : 8 bits
    Scan type : Progressive
    Bits/(Pixel*Frame) : 0.111
    Stream size : 12.0 GiB (85%)
    Writing library : x264 core 133 r2334 a3ac64b
    Encoding settings : cabac=1 / ref=4 / deblock=1:-1:-1 / analyse=0x3:0 / me=umh / subme=9 / psy=1 / psy_rd=1.00:0.10 / mixed_ref=1 / me_range=42 / chroma_me=0 / trellis=2 / 8x8dct=1 / cqm=0 / deadzone=21,11 / fast_pskip=0 / chroma_qp_offset=-3 / threads=12 / lookahead_threads=1 / sliced_threads=0 / nr=0 / decimate=0 / interlaced=0 / bluray_compat=0 / constrained_intra=0 / bframes=5 / b_pyramid=2 / b_adapt=2 / b_bias=0 / direct=1 / weightb=1 / open_gop=0 / weightp=2 / keyint=594 / keyint_min=59 / scenecut=40 / intra_refresh=0 / rc=crf / mbtree=0 / crf=15.0 / qcomp=0.60 / qpmin=0 / qpmax=69 / qpstep=4 / ip_ratio=1.40 / pb_ratio=1.30 / aq=0
    Language : English
    Default : Yes
    Forced : No
    Audio #1
    ID : 2
    Format : AC-3
    Format/Info : Audio Coding 3
    Mode extension : CM (complete main)
    Codec ID : A_AC3
    Duration : 2h 8mn
    Bit rate mode : Constant
    Bit rate : 256 Kbps
    Channel(s) : 2 channels
    Channel positions : Front: L R
    Sampling rate : 48.0 KHz
    Bit depth : 16 bits
    Compression mode : Lossy
    Stream size : 236 MiB (2%)
    Title : Дубляж
    Language : Russian
    Default : Yes
    Forced : No
    Audio #2
    ID : 3
    Format : AC-3
    Format/Info : Audio Coding 3
    Mode extension : CM (complete main)
    Codec ID : A_AC3
    Duration : 2h 8mn
    Bit rate mode : Constant
    Bit rate : 640 Kbps
    Channel(s) : 6 channels
    Channel positions : Front: L C R, Side: L R, LFE
    Sampling rate : 48.0 KHz
    Bit depth : 16 bits
    Compression mode : Lossy
    Stream size : 589 MiB (4%)
    Title : Многоголосый, закадровый Пифагор
    Language : Russian
    Default : No
    Forced : No
    Audio #3
    ID : 4
    Format : AC-3
    Format/Info : Audio Coding 3
    Mode extension : CM (complete main)
    Codec ID : A_AC3
    Duration : 2h 8mn
    Bit rate mode : Constant
    Bit rate : 448 Kbps
    Channel(s) : 6 channels
    Channel positions : Front: L C R, Side: L R, LFE
    Sampling rate : 48.0 KHz
    Bit depth : 16 bits
    Compression mode : Lossy
    Stream size : 412 MiB (3%)
    Title : Многоголосый, закадровый Киномания
    Language : Russian
    Default : No
    Forced : No
    Audio #4
    ID : 5
    Format : AC-3
    Format/Info : Audio Coding 3
    Mode extension : CM (complete main)
    Codec ID : A_AC3
    Duration : 2h 8mn
    Bit rate mode : Constant
    Bit rate : 640 Kbps
    Channel(s) : 6 channels
    Channel positions : Front: L C R, Side: L R, LFE
    Sampling rate : 48.0 KHz
    Bit depth : 16 bits
    Compression mode : Lossy
    Stream size : 589 MiB (4%)
    Title : Оригинал
    Language : English
    Default : No
    Forced : No
    Text #1
    ID : 6
    Format : UTF-8
    Codec ID : S_TEXT/UTF8
    Codec ID/Info : UTF-8 Plain Text
    Title : Полные
    Language : Russian
    Default : No
    Forced : No
    Text #2
    ID : 7
    Format : UTF-8
    Codec ID : S_TEXT/UTF8
    Codec ID/Info : UTF-8 Plain Text
    Title : Полные
    Language : English
    Default : No
    Forced : No
    Menu
    00:00:00.000 : en:Chapter 1
    00:04:13.586 : en:Chapter 2
    00:08:38.309 : en:Chapter 3
    00:16:11.929 : en:Chapter 4
    00:21:43.135 : en:Chapter 5
    00:33:22.458 : en:Chapter 6
    00:41:48.797 : en:Chapter 7
    00:47:58.000 : en:Chapter 8
    00:53:40.592 : en:Chapter 9
    01:04:46.674 : en:Chapter 10
    01:12:59.708 : en:Chapter 11
    01:20:47.884 : en:Chapter 12
    01:26:18.965 : en:Chapter 13
    01:31:53.382 : en:Chapter 14
    01:42:23.637 : en:Chapter 15
    01:50:52.687 : en:Chapter 16
    01:52:13.935 : en:Chapter 17
    01:58:10.875 : en:Chapter 18
    01:59:51.601 : en:Chapter 19
    02:01:56.434 : en:Chapter 20
    02:08:40.087 : en:Chapter 21

    Скриншоты

    Парк Юрского периода 3

    -Название: Парк Юрского периода 3 / Jurassic Park III
    Оригинальное название: Парк Юрского периода 3 / Jurassic Park III
    Год выпуска: 2001
    Страна: США
    Жанр: фантастика, фэнтези, боевик, триллер, приключения
    Продолжительность: 01:32:20
    Перевод: Дубляж
    Субтитры:Русские (Форсированные), Русские (Полные), английские (полные)
    Вид субтитров Вшитые, отключаемые
    Главы Есть-Режиссер: Джо Джонстон / Joe Johnston-В ролях: Сэм Нил (Dr. Alan Grant), Уильям Х. Мэйси (Paul Kirby), Теа Леони (Amanda Kirby), Алессандро Нивола (Billy Brennan), Тревор Морган (Eric Kirby), Майкл Джитер (Mr. Udesky), Джон Дил (Cooper), Брюс А. Янг (M.B. Nash), Лора Дерн (Dr. Ellie Sattler), Тейлор Николс (Mark Degler), Марк Харелик (Ben Hildebrand), Хулио Оскар Мечосо (Enrique Cardoso)-Описание:
    Герой Сэма Нила, палеонтолог Алан Грант, принимает предложение состоятельного предпринимателя совершить обзорную экскурсию над печально знаменитым островом Сорна на специально нанятом самолете. Мог ли доктор Грант предполагать, что страшная, непредвиденная катастрофа снова заставит его столкнуться со свирепыми плотоядными существами из прошлого?!
    Более того, с момента ужасных событий картины «Парк Юрского периода» динозавры стали хитрее, сильнее и несоизмеримо опасней. Начинается новая, стремительная и жуткая гонка на выживание, в сравнении с которой все прошлые похождения доктора Гранта - лишь детские игрушки!-Рейтинг

    imdb.com: 5.90 (156 766)
    MPAA: PG-13 - Детям до 13 лет просмотр не желателен-Качество: BDRip 1080p / 60 FPS
    Формат: MKV
    Видео кодек: AVC
    Аудио кодек:AC3, DTS
    Видео: AVC, 1920x1040, 15665 kbps, 59,940 fps
    Аудио №1: русский / AC3 / 5.1 / 48 kHz / 640 kbps / 16 bit |Дубляж|
    Аудио №2: русский / AC3 / 5.1 / 48 kHz / 448 kbps / 16 bit |Многоголосый, закадровый Киномания|
    Аудио №3: английский / AC3 / 5.1 / 48 kHz / 640 kbps / 16 bit
    Аудио №4: русский / DTS / 5.1 / 48 kHz / 755 kbps / 24 bit |Дубляж| - -

    MI

    General
    Unique ID : 249635514096785209257332837156676940435 (0xBBCE0D1A02E0C3B9B31F76BB68CBB293)
    Complete name : A:1080p 60fpsПарк Юрского периода 1080p 60fpsПарк Юрского периода 3 1080p 60fps.mkv
    Format : Matroska
    Format version : Version 4 / Version 2
    File size : 11.9 GiB
    Duration : 1h 32mn
    Overall bit rate : 18.5 Mbps
    Encoded date : UTC 2014-09-13 07:52:29
    Writing application : mkvmerge v6.9.1 ('Blue Panther') 64bit built on Apr 18 2014 18:23:38
    Writing library : libebml v1.3.0 + libmatroska v1.4.1
    Video
    ID : 1
    Format : AVC
    Format/Info : Advanced Video Codec
    Format profile : High@L4.1
    Format settings, CABAC : Yes
    Format settings, ReFrames : 4 frames
    Codec ID : V_MPEG4/ISO/AVC
    Duration : 1h 32mn
    Bit rate : 15.7 Mbps
    Width : 1 920 pixels
    Height : 1 040 pixels
    Display aspect ratio : 16:9
    Frame rate : 59.940 fps
    Color space : YUV
    Chroma subsampling : 4:2:0
    Bit depth : 8 bits
    Scan type : Progressive
    Bits/(Pixel*Frame) : 0.131
    Stream size : 10.1 GiB (85%)
    Writing library : x264 core 133 r2334 a3ac64b
    Encoding settings : cabac=1 / ref=4 / deblock=1:-1:-1 / analyse=0x3:0 / me=umh / subme=9 / psy=1 / psy_rd=1.00:0.10 / mixed_ref=1 / me_range=42 / chroma_me=0 / trellis=2 / 8x8dct=1 / cqm=0 / deadzone=21,11 / fast_pskip=0 / chroma_qp_offset=-3 / threads=12 / lookahead_threads=1 / sliced_threads=0 / nr=0 / decimate=0 / interlaced=0 / bluray_compat=0 / constrained_intra=0 / bframes=5 / b_pyramid=2 / b_adapt=2 / b_bias=0 / direct=1 / weightb=1 / open_gop=0 / weightp=2 / keyint=594 / keyint_min=59 / scenecut=40 / intra_refresh=0 / rc=crf / mbtree=0 / crf=16.0 / qcomp=0.60 / qpmin=0 / qpmax=69 / qpstep=4 / ip_ratio=1.40 / pb_ratio=1.30 / aq=0
    Language : English
    Default : Yes
    Forced : No
    Audio #1
    ID : 2
    Format : AC-3
    Format/Info : Audio Coding 3
    Mode extension : CM (complete main)
    Codec ID : A_AC3
    Duration : 1h 32mn
    Bit rate mode : Constant
    Bit rate : 640 Kbps
    Channel(s) : 6 channels
    Channel positions : Front: L C R, Side: L R, LFE
    Sampling rate : 48.0 KHz
    Bit depth : 16 bits
    Compression mode : Lossy
    Stream size : 423 MiB (3%)
    Title : Дубляж
    Language : Russian
    Default : Yes
    Forced : No
    Audio #2
    ID : 3
    Format : AC-3
    Format/Info : Audio Coding 3
    Mode extension : CM (complete main)
    Codec ID : A_AC3
    Duration : 1h 32mn
    Bit rate mode : Constant
    Bit rate : 448 Kbps
    Channel(s) : 6 channels
    Channel positions : Front: L C R, Side: L R, LFE
    Sampling rate : 48.0 KHz
    Bit depth : 16 bits
    Compression mode : Lossy
    Stream size : 296 MiB (2%)
    Title : Многоголосый, закадровый Киномания
    Language : Russian
    Default : No
    Forced : No
    Audio #3
    ID : 4
    Format : AC-3
    Format/Info : Audio Coding 3
    Mode extension : CM (complete main)
    Codec ID : A_AC3
    Duration : 1h 32mn
    Bit rate mode : Constant
    Bit rate : 640 Kbps
    Channel(s) : 6 channels
    Channel positions : Front: L C R, Side: L R, LFE
    Sampling rate : 48.0 KHz
    Bit depth : 16 bits
    Compression mode : Lossy
    Stream size : 423 MiB (3%)
    Title : Оригинал
    Language : English
    Default : No
    Forced : No
    Audio #4
    ID : 5
    Format : DTS
    Format/Info : Digital Theater Systems
    Codec ID : A_DTS
    Duration : 1h 32mn
    Bit rate mode : Constant
    Bit rate : 755 Kbps
    Channel(s) : 6 channels
    Channel positions : Front: L C R, Side: L R, LFE
    Sampling rate : 48.0 KHz
    Bit depth : 24 bits
    Compression mode : Lossy
    Stream size : 498 MiB (4%)
    Title : Дубляж
    Language : Russian
    Default : No
    Forced : No
    Text #1
    ID : 6
    Format : UTF-8
    Codec ID : S_TEXT/UTF8
    Codec ID/Info : UTF-8 Plain Text
    Title : Форсированные
    Language : Russian
    Default : Yes
    Forced : No
    Text #2
    ID : 7
    Format : UTF-8
    Codec ID : S_TEXT/UTF8
    Codec ID/Info : UTF-8 Plain Text
    Title : Полные
    Language : Russian
    Default : No
    Forced : No
    Text #3
    ID : 8
    Format : UTF-8
    Codec ID : S_TEXT/UTF8
    Codec ID/Info : UTF-8 Plain Text
    Title : Полные
    Language : English
    Default : No
    Forced : No
    Menu
    00:00:00.000 : en:Parasail Into Peril
    00:04:11.793 : en:The Dinosaur Man
    00:12:43.721 : en:The Kirbys' Offer
    00:17:26.796 : en:Unhappy Landings
    00:19:56.737 : en:The Spinosaurus
    00:26:27.294 : en:Duel of the Dinosaurs
    00:27:35.696 : en:The Lost Boys
    00:32:37.831 : en:He's Alive
    00:36:13.046 : en:The Nest
    00:40:11.993 : en:Raptors
    00:44:32.211 : en:Grant's Rescuer
    00:53:06.517 : en:Family Reunion
    00:56:48.614 : en:The Best Intentions
    00:58:55.574 : en:The Birdcage
    01:03:00.694 : en:Billy's Gamble
    01:11:44.759 : en:A Call for Help
    01:14:53.322 : en:A Father's Courage
    01:18:44.219 : en:Call of the Raptor
    01:21:29.802 : en:Going Home
    01:24:28.230 : en:End Titles

    Скриншоты

  2. Стаж:
    1 год 10 месяцев
    Сообщений:
    6
    Пол:
    Не указан
     
    есть 60 фпс в полноценном 1920*1080?
  3. Стаж:
    3 года 1 месяц
    Сообщений:
    2086
    Пол:
    Мужской
     
    Нету .
    22-Янв-2016 14:40 (спустя 34 минуты)


Вы не можете начинать темы
Вы не можете отвечать на сообщения
Вы не можете редактировать свои сообщения
Вы не можете удалять свои сообщения
Вы не можете голосовать в опросах
Вы не можете прикреплять файлы к сообщениям
Вы не можете скачивать файлы