Властелин колец: Трилогия / The Lord of the Rings: Trilogy (2001-2003) BDRip-AVC | Extended Cut | 60 fps План побега 2 / Escape Plan 2: Hades (2018) BDRip 720p | 60 fps Красный воробей / Red Sparrow (2018) BDRip 720p | 60 fps Короче / Downsizing (2017) BDRip 720p | 60 fps Невероятный Халк / The Incredible Hulk (2008) BDRip 720p | 60 fps Ограбление в ураган / The Hurricane Heist (2018) BDRip 720p | 60 fps Форма воды / The Shape of Water (2017) BDRip 720p | 60 fps Жажда смерти / Death Wish (2018) BDRip 1080p | 60 fps
  1. Стаж:
    4 года
    Сообщений:
    2414
    Пол:
    Мужской
    «Ночь пожирает мир» Информация
    Название: Париж. Город Zомби
    Оригинальное название: The Night Eats the World / La nuit a dévoré le monde
    Год выхода: 2018
    Жанр: Ужасы
    Режиссер: Доминик Роше
    Сценарий: Жереми Гез, Гийом Леман
    Продюсер: Кароль Скотта, Симон Арналь
    В ролях: Андерс Даниелсен Лье, Голшифте Фарахани, Дени Лаван, Сигрид Буази, Дэвид Камменос, Жан-Ив Силли, Нэнси Мурильо, Лина-Роуз Джедже, Виктор Ван Дер Верд, Лео Пуле

    Сюжет:
    На утро после шумной вечеринки Сэм обнаруживает, что его бывшая девушка, ее новый бойфренд и вообще все вокруг превратились в зомби. И единственное место на весь Париж, где он может чувствовать себя в безопасности, — это квартира, где он проснулся. Что делать? Бежать или остаться? Защищаться или нападать самому?

    Страна: Франция
    Продолжительность: 01:33:30

    Файл
    Кодек: H.264
    Формат: MKV
    Качество: BDRip 720p | 60 fps
    Видео: 1280 x 690 (1.855) | 60.000 fps | 10.0 Мбит/сек
    Аудио 01: AC3 | 5.1 | 48 kHz | 384 kbps | 16 bit | Дубляж - iTunes |
    Аудио 02: AC3 | 5.1 | 48 kHz | 448 kbps | 16 bit | english |
    Субтитры: Русские (full), английские

    MedifInfo

    Видео
    Идентификатор : 1
    Формат : AVC
    Формат/Информация : Advanced Video Codec
    Профиль формата : Main@L4.1
    Настройки формата : CABAC / 4 Ref Frames
    Параметр CABAC формата : Да
    Параметр RefFrames формата : 4 кадра
    Режим смешивания : Header stripping
    Идентификатор кодека : V_MPEG4/ISO/AVC
    Продолжительность : 1 ч. 33 м.
    Битрейт : 9999 Кбит/сек
    Ширина : 1280 пикселей
    Высота : 690 пикселей
    Соотношение сторон : 1,85:1
    Режим частоты кадров : Постоянный
    Частота кадров : 60,000 кадров/сек
    Цветовое пространство : YUV
    Субдискретизация насыщенности : 4:2:0
    Битовая глубина : 8 бит
    Тип развёртки : Прогрессивная
    Бит/(Пиксели*Кадры) : 0.189
    Размер потока : 6,38 Гбайт (90%)
    Заголовок : www.60-fps.org
    Библиотека кодирования : x264 core 155 r2901 7d0ff22
    Настройки программы : cabac=1 / ref=3 / deblock=1:-3:-3 / analyse=0x1:0x111 / me=hex / subme=7 / psy=1 / psy_rd=1.00:0.25 / mixed_ref=1 / me_range=16 / chroma_me=1 / trellis=1 / 8x8dct=0 / cqm=0 / deadzone=6,6 / fast_pskip=1 / chroma_qp_offset=-4 / threads=12 / lookahead_threads=2 / sliced_threads=0 / nr=0 / decimate=0 / interlaced=0 / bluray_compat=0 / constrained_intra=0 / bframes=3 / b_pyramid=2 / b_adapt=1 / b_bias=0 / direct=1 / weightb=1 / open_gop=0 / weightp=2 / keyint=600 / keyint_min=59 / scenecut=40 / intra_refresh=0 / rc_lookahead=40 / rc=2pass / mbtree=1 / bitrate=9999 / ratetol=1.0 / qcomp=0.80 / qpmin=0 / qpmax=69 / qpstep=4 / cplxblur=20.0 / qblur=0.5 / vbv_maxrate=50000 / vbv_bufsize=62500 / nal_hrd=none / filler=0 / ip_ratio=1.10 / aq=1:0.50
    Default : Да
    Forced : Нет
    Аудио #1
    Идентификатор : 2
    Формат : AC-3
    Формат/Информация : Audio Coding 3
    Режим смешивания : Header stripping
    Идентификатор кодека : A_AC3
    Продолжительность : 1 ч. 33 м.
    Вид битрейта : Постоянный
    Битрейт : 384 Кбит/сек
    Каналы : 6 каналов
    Расположение каналов : Front: L C R, Side: L R, LFE
    Частота : 48,0 КГц
    Частота кадров : 31,250 кадров/сек (1536 SPF)
    Битовая глубина : 16 бит
    Метод сжатия : С потерями
    Размер потока : 257 Мбайт (4%)
    Заголовок : Дубляж - iTunes
    Язык : Russian
    ServiceKind/String : Complete Main
    Default : Да
    Forced : Нет
    Аудио #2
    Идентификатор : 3
    Формат : AC-3
    Формат/Информация : Audio Coding 3
    Режим смешивания : Header stripping
    Идентификатор кодека : A_AC3
    Продолжительность : 1 ч. 33 м.
    Вид битрейта : Постоянный
    Битрейт : 448 Кбит/сек
    Каналы : 6 каналов
    Расположение каналов : Front: L C R, Side: L R, LFE
    Частота : 48,0 КГц
    Частота кадров : 31,250 кадров/сек (1536 SPF)
    Битовая глубина : 16 бит
    Метод сжатия : С потерями
    Размер потока : 300 Мбайт (4%)
    Заголовок : english
    Язык : English
    ServiceKind/String : Complete Main
    Default : Нет
    Forced : Нет
    Текст #1
    Идентификатор : 4
    Формат : UTF-8
    Идентификатор кодека : S_TEXT/UTF8
    Идентификатор кодека/Информация : UTF-8 Plain Text
    Заголовок : full
    Язык : Russian
    Default : Нет
    Forced : Нет
    Текст #2
    Идентификатор : 5
    Формат : UTF-8
    Идентификатор кодека : S_TEXT/UTF8
    Идентификатор кодека/Информация : UTF-8 Plain Text
    Заголовок : SDH
    Язык : English
    Default : Нет
    Forced : Нет
    Меню
    00:00:00.000 : en:Chapter 1
    00:08:14.875 : en:Chapter 2
    00:16:22.500 : en:Chapter 3
    00:24:28.792 : en:Chapter 4
    00:33:04.917 : en:Chapter 5
    00:43:06.208 : en:Chapter 6
    00:51:41.875 : en:Chapter 7
    01:01:50.417 : en:Chapter 8
    01:10:35.917 : en:Chapter 9
    01:20:13.542 : en:Chapter 10
    01:30:31.333 : en:Chapter 11

    Релиз подготовлен 60 - fps



Вы не можете начинать темы
Вы не можете отвечать на сообщения
Вы не можете редактировать свои сообщения
Вы не можете удалять свои сообщения
Вы не можете голосовать в опросах
Вы не можете прикреплять файлы к сообщениям
Вы не можете скачивать файлы