Париж: Город мёртвых / As Above, So Below
Год выпуска: 2014 г.
Жанр: ужасы, триллер, детектив
Страна: США
Режиссер: Джон Эрик Даудл / John Erick Dowdle
Продолжительность: 01:33:01
Перевод: Профессиональный (дублированный)-В ролях: Пердита Викс (Scarlett), Бен Фельдман (George), Эдвин Ходж (Benji), Франсуа Сивиль (Papillon), Мэрион Ламберт (Souxie), Али Мархьяр (Zed), Косме Кастро (La Taupe), Хамид Джавадан (Reza), Тео Чолби (Gloomy Teenager), Эми Леви (Tour Guide), Рогер Ван Хол (Scarlett's Father), Оливия Чики Трнка (Strange Young Woman)-Описание: Величие Эйфелевой башни и роскошь бутиков, ароматы изысканной кухни и краски Елисейских полей - это лишь саван, под которым скрывается настоящий Париж. Здесь, в бесконечных катакомбах живут истинные владыки этого мира.
Заблудшая душа, добро пожаловать в Город мертвых...-Формат видео: MKV
Качество видео:BDRip-AVC | 60fps
Видео кодек: AVC
Аудио кодек: AC3
Видео: AVC, 1024x552 (1.855), 5000 kbps, 59,940 fps, 0,148 bpp
Аудио: русский / AC3 / 5.1 / 48 kHz / 448 kbps / 16 bit |Дубляж|
Cубтитры: русские (Форсированные), русские (Полные)
Навигация по главам:есть

Релиз by:

Отчёт MediaInfo

General
Unique ID : 186829462533666181818828835525878685998 (0x8C8E0BAEFAEEED17B657233D9FE1212E)
Название : B:\Париж город Мертвых BDRip-AVC 60fps.mkv
Формат : Matroska
Формат version : Version 4 / Version 2
Размер файла : 3.54 GiB
Длительность : 1h 33mn
Общий Битрейт : 5 452 Kbps
Movie name : R.G HD-Films by Tiberiumsun69
Encoded date : UTC 2015-05-19 10:54:50
Создано приложением : mkvmerge v7.8.0 ('River Man') 64bit built on Mar 27 2015 16:31:37
Writing library : libebml v1.3.1 + libmatroska v1.4.2
Attachment : Yes
Video
ID : 1
Формат : AVC
Формат/Info : Advanced Video Кодек
Формат profile : High@L4.1
Формат настройки, CABAC : Yes
Формат настройки, ReFrames : 4 frames
Кодек ID : V_MPEG4/ISO/AVC
Длительность : 1h 33mn
Битрейт : 5 000 Kbps
Width : 1 024 пикселей
Высота : 552 пикселей
Соотношение кадра : 1.855
Частота кадров : 59.940 fps
Цветопередача : YUV
Chroma subsampling : 4:2:0
Разрядность : 8 bits
Тип сканирования : Progressive
Bits/(Pixel*Frame) : 0.148
Размер потока : 3.18 GiB (90%)
Title : R.G HD-Films by Tiberiumsun69
Writing library : x264 core 146 r2538 121396c
Encoding настройки : cabac=1 / ref=4 / deblock=1:-2:-1 / analyse=0x3:0x113 / me=umh / subme=11 / psy=1 / psy_rd=1.00:0.20 / mixed_ref=1 / me_range=32 / chroma_me=1 / trellis=2 / 8x8dct=1 / cqm=0 / deadzone=21,11 / fast_pskip=0 / chroma_qp_offset=-3 / threads=12 / lookahead_threads=1 / sliced_threads=0 / nr=0 / decimate=0 / interlaced=0 / bluray_compat=0 / constrained_intra=0 / bframes=3 / b_pyramid=2 / b_adapt=2 / b_bias=0 / direct=3 / weightb=1 / open_gop=0 / weightp=2 / keyint=600 / keyint_min=59 / scenecut=40 / intra_refresh=0 / rc_lookahead=60 / rc=2pass / mbtree=1 / bitrate=5000 / ratetol=1.0 / qcomp=0.60 / qpmin=0 / qpmax=69 / qpstep=4 / cplxblur=20.0 / qblur=0.5 / vbv_maxrate=50000 / vbv_bufsize=62500 / nal_hrd=none / filler=0 / ip_ratio=1.40 / aq=1:1.00
Язык : English
Default : Yes
Forced : No
Audio
ID : 2
Формат : AC-3
Формат/Info : Audio Coding 3
Расширение режима : CM (complete main)
Кодек ID : A_AC3
Длительность : 1h 33mn
Битрейт mode : Constant
Битрейт : 448 Kbps
Каналы(s) : 6 каналов
Каналы positions : Front: L C R, Side: L R, LFE
Частота : 48.0 KHz
Разрядность : 16 bits
Режим сжатия : Lossy
Размер потока : 298 MiB (8%)
Title : Дубляж
Язык : Russian
Default : Yes
Forced : No
Text #1
ID : 3
Формат : UTF-8
Кодек ID : S_TEXT/UTF8
Кодек ID/Info : UTF-8 Plain Text
Title : Форсированные
Язык : Russian
Default : Yes
Forced : No
Text #2
ID : 4
Формат : UTF-8
Кодек ID : S_TEXT/UTF8
Кодек ID/Info : UTF-8 Plain Text
Title : Полные
Язык : Russian
Default : No
Forced : No
Menu
00:00:00.000 : en:Chapter 1
00:07:00.044 : en:Chapter 2
00:09:42.748 : en:Chapter 3
00:13:18.672 : en:Chapter 4
00:18:37.074 : en:Chapter 5
00:22:33.352 : en:Chapter 6
00:24:42.814 : en:Chapter 7
00:29:38.777 : en:Chapter 8
00:33:03.856 : en:Chapter 9
00:37:17.777 : en:Chapter 10
00:43:05.332 : en:Chapter 11
00:47:07.491 : en:Chapter 12
00:53:20.739 : en:Chapter 13
00:59:00.328 : en:Chapter 14
01:05:33.554 : en:Chapter 15
01:11:40.212 : en:Chapter 16
01:16:05.602 : en:Chapter 17
01:20:20.732 : en:Chapter 18
01:26:02.615 : en:Chapter 19
01:27:57.188 : en:Chapter 20

[Цитировать]
Tranch

В чём принципиальное отличие от подобных 720 или 1080p? По скринам всё здорово, помогает ли подобное качество в улучшении изображения и присутствуют ли артефакты? И последний вопрос, это выбранный курс, уникальные релизы, которые не будут в дальнейшем подниматься до 720 или 1080?

[Цитировать]
Tranch

Ressident,
Спасибо большое ВАМ обоим! Всегда приятно услышать разъяснение :)
Можно я ещё вопросик оставлю.
А если я в заявках оставил фильмы, есть ли вероятность, что кто-нибудь из творцов рипов их сделает, или всё зависит от набранных голосов? Заранее извиняюсь, наоставлял в просьбах много всего, подумал, мало ли кому на будущее эти фильмы для рипов приглянуться :)

[Цитировать]
ZHz

опа от тибериума, зря он использует мелкую сетку, на одном только семпле немерено артефактов

[Цитировать]
envy

2629зря он использует мелкую сетку, на одном только семпле немерено артефактов
))))
Я тоже умничал....)))
Кто как хочет тот так и делает)))
Но раз так..то, для тех кто здесь делает рипы:
Настройки кодека:
bframes=3 - не нужно так, не меньше пяти. или просто поставьте 5 и забудьте про него))
deblock=1:-2:-1 - вообще то да, пользоваться можно, но не для тех рипов в которых дорисовываются кадры... лучше по нулям.
psy_rd=1.00:0.20 - так же не рекомендуется использовать так называемую псевдочеткость... в некоторых сценах очень плохо смотрится.
mbtree=1 - так же не нужно это... это для тех случаев если битрейта мало. а так картинка получается мыльная.
keyint=600 / keyint_min=59 - про это уже давно должны были понять)))
Если думаете что не так... то делайте как знаете)))
Каждый делает по своему)))
ИМХО

[Цитировать]
Kryl

Я делаю по звездам .... :ag:

[Цитировать]
ZHz

2652ZHz...Привет! Если по чесноку, мне первая работа на новом фильтре очень понравилась от Тибериума-Восхождение Юпитер! На мой взгляд артефактов стало заметно меньше, на сколько процентов сказать не могу! Но картинка очень плавная и в динамичных сценах (замесах) это очень хорошо видно! Возможно он ещё что нибудь разработает в будущем-глядишь и артефакты пропадут полностью! Будем надеяться
Плавность, да, возросла, но артефакты полезли из всех щелей, такой лажи я давно не видел! По сути одно только значение может повысить плавность, и вокруг него и пляшет скрипт - analyse.main.search.coarse.distance, у меня 1, чем больше, тем плавнее, но и артефакты на заставят себя ждать. При значении 4 ловит любое движение, особенно любит свет, там дорисует столько разных движений от одного блика, что вся картинка поплывет.
Мораль сей басни такова: плавно сделать просто, куда сложнее уравновесить плавность и количество артефактов.

[Цитировать]
K.O.

Спасибо, качество хорошее! Артефактов не заметил! Продолжайте в том же духе!
По фильму, неплохо, немножко нервы пощекотали вечером, 6.5/10
 
Показать сообщения:    

Текущее время: 23-Сен 01:30

Часовой пояс: UTC + 3


Вы не можете начинать темы
Вы не можете отвечать на сообщения
Вы не можете редактировать свои сообщения
Вы не можете удалять свои сообщения
Вы не можете голосовать в опросах
Вы не можете прикреплять файлы к сообщениям
Вы не можете скачивать файлы