-Название: Парфюмер: История одного убийцы
Оригинальное название: Perfume: The Story of a Murderer
Год выпуска: 2006
Страна: Германия, Франция, Испания, США
Жанр: фэнтези, драма, криминал
Продолжительность: 02:27:25
Перевод: Дубляж
Субтитры:русские (Полные), английские (Полные)-Режиссер: Том Тыквер / Tom Tykwer-В ролях: Бен Уишоу (Jean-Baptiste Grenouille), Дастин Хоффман (Giuseppe Baldini), Алан Рикман (Antoine Richis), Рейчел Херд-Вуд (Laura), Биргит Минихмайр (Grenouille's Mother), Шан Томас (Madame Gaillard), Тимоти Дэвис (Chenier), Дора Романо (Baldini's Wife), Сара Форестье (Jeanne), Дэвид Колдер (Bishop of Grasse), Джон Хёрт (рассказчик, озвучка), Франсеск Альбиоль (Court Official)-Описание:
Жестокий, никогда не знавший любви, сирота Жан-Батист Гренуй настоящих успехов достиг лишь на одном поприще - среди парфюмеров ему никогда не было равных. По его духам сходит с ума весь высший свет, не подозревая о том, какой страшной ценой будет получен последний, идеальный аромат.-Рейтинг
kinopoisk.ru: 7.750 (101 356)
imdb.com: 7.50 (161 267)
MPAA: R - Лицам до 17 лет обязательно присутствие взрослого-Автор рипа:Tiberiumsun69
Качество: BDRip 1080p / 60 FPS
Формат: MKV
Битрейт видео: ~7354 kb/s
Размер кадра: 1920*816
Аудио 1 Русский: AC3 5.1, 640 kb/s
Аудио 2 Английский: AC3 5.1, 640 kb/s
Навигация по главам: есть-

MI

Общее
Уникальный идентификатор : 210068591530809562701813996838519047281 (0x9E09BD34603ED0CFADE4AEBFC94C0471)
Полное имя : F:Парфюмер 1080p 60fps.mkv
Формат : Matroska
Версия формата : Version 4 / Version 2
Размер файла : 9,07 Гбайт
Продолжительность : 2 ч. 27 м.
Общий поток : 8810 Кбит/сек
Дата кодирования : UTC 2014-07-09 12:45:27
Программа кодирования : mkvmerge v7.0.0 ('Where We Going') 64bit built on Jun 9 2014 15:16:27
Библиотека кодирования : libebml v1.3.0 + libmatroska v1.4.1
DURATION : 02:16:11.213000000
NUMBER_OF_FRAMES : 899
NUMBER_OF_BYTES : 29373
_STATISTICS_WRITING_APP : mkvmerge v7.0.0 ('Where We Going') 64bit built on Jun 9 2014 15:16:27
_STATISTICS_WRITING_DATE_UTC : 2014-07-09 12:45:27
_STATISTICS_TAGS : BPS DURATION NUMBER_OF_FRAMES NUMBER_OF_BYTES
Видео
Идентификатор : 1
Формат : AVC
Формат/Информация : Advanced Video Codec
Профиль формата : High@L4.1
Параметр CABAC формата : Да
Параметр ReFrames формата : 4 кадра
Идентификатор кодека : V_MPEG4/ISO/AVC
Продолжительность : 2 ч. 27 м.
Битрейт : 7354 Кбит/сек
Ширина : 1920 пикселей
Высота : 816 пикселей
Соотношение сторон : 2,35:1
Режим частоты кадров : Постоянный
Частота кадров : 59,880 кадров/сек
Частота кадров в оригинале : 59,940 кадров/сек
Цветовое пространство : YUV
Субдискретизация насыщенности : 4:2:0
Битовая глубина : 8 бит
Тип развёртки : Прогрессивная
Бит/(Пиксели*Кадры) : 0.078
Размер потока : 7,57 Гбайт (83%)
Библиотека кодирования : x264 core 130 r2273 b3065e6
Настройки программы : cabac=1 / ref=4 / deblock=1:-1:-1 / analyse=0x3:0 / me=umh / subme=9 / psy=1 / psy_rd=1.00:0.10 / mixed_ref=1 / me_range=24 / chroma_me=0 / trellis=1 / 8x8dct=1 / cqm=0 / deadzone=21,11 / fast_pskip=0 / chroma_qp_offset=-3 / threads=12 / lookahead_threads=1 / sliced_threads=0 / nr=0 / decimate=0 / interlaced=0 / bluray_compat=0 / constrained_intra=0 / bframes=5 / b_pyramid=2 / b_adapt=2 / b_bias=0 / direct=1 / weightb=1 / open_gop=0 / weightp=2 / keyint=599 / keyint_min=59 / scenecut=40 / intra_refresh=0 / rc=crf / mbtree=0 / crf=18.0 / qcomp=0.60 / qpmin=0 / qpmax=69 / qpstep=4 / ip_ratio=1.40 / pb_ratio=1.30 / aq=1:0.90
Язык : English
Default : Да
Forced : Нет
DURATION : 02:27:24.778000000
NUMBER_OF_FRAMES : 530156
NUMBER_OF_BYTES : 8320039272
_STATISTICS_WRITING_APP : mkvmerge v7.0.0 ('Where We Going') 64bit built on Jun 9 2014 15:16:27
_STATISTICS_WRITING_DATE_UTC : 2014-07-09 12:45:27
_STATISTICS_TAGS : BPS DURATION NUMBER_OF_FRAMES NUMBER_OF_BYTES
Аудио #1
Идентификатор : 2
Формат : AC-3
Формат/Информация : Audio Coding 3
Расширение режима : CM (complete main)
Параметр Endianness формата : Big
Идентификатор кодека : A_AC3
Продолжительность : 2 ч. 27 м.
Вид битрейта : Постоянный
Битрейт : 640 Кбит/сек
Каналы : 6 каналов
Расположение каналов : Front: L C R, Side: L R, LFE
Частота : 48,0 КГц
Битовая глубина : 16 бит
Метод сжатия : С потерями
Размер потока : 675 Мбайт (7%)
Заголовок : Dub
Язык : Russian
Default : Да
Forced : Нет
Аудио #2
Идентификатор : 3
Формат : AC-3
Формат/Информация : Audio Coding 3
Расширение режима : CM (complete main)
Параметр Endianness формата : Big
Идентификатор кодека : A_AC3
Продолжительность : 2 ч. 27 м.
Вид битрейта : Постоянный
Битрейт : 640 Кбит/сек
Каналы : 6 каналов
Расположение каналов : Front: L C R, Side: L R, LFE
Частота : 48,0 КГц
Битовая глубина : 16 бит
Метод сжатия : С потерями
Размер потока : 675 Мбайт (7%)
Заголовок : Original
Язык : English
Default : Нет
Forced : Нет
Текст #1
Идентификатор : 4
Формат : UTF-8
Идентификатор кодека : S_TEXT/UTF8
Идентификатор кодека/Информация : UTF-8 Plain Text
Заголовок : Full
Язык : Russian
Default : Нет
Forced : Нет
Текст #2
Идентификатор : 5
Формат : UTF-8
Идентификатор кодека : S_TEXT/UTF8
Идентификатор кодека/Информация : UTF-8 Plain Text
Заголовок : Full
Язык : English
Default : Нет
Forced : Нет
Меню
00:00:00.000 : en:00:00:00.000
00:04:08.747 : en:00:04:08.747
00:09:16.471 : en:00:09:16.471
00:12:10.187 : en:00:12:10.187
00:18:02.205 : en:00:18:02.205
00:27:41.660 : en:00:27:41.660
00:33:29.089 : en:00:33:29.089
00:43:56.842 : en:00:43:56.842
00:49:27.422 : en:00:49:27.422
00:58:21.706 : en:00:58:21.706
01:03:28.304 : en:01:03:28.304
01:08:19.929 : en:01:08:19.929
01:16:09.146 : en:01:16:09.146
01:21:56.536 : en:01:21:56.536
01:29:21.439 : en:01:29:21.439
01:36:42.128 : en:01:36:42.128
01:42:02.448 : en:01:42:02.448
01:47:58.305 : en:01:47:58.305
01:53:50.113 : en:01:53:50.113
01:56:57.342 : en:01:56:57.342
02:05:07.207 : en:02:05:07.207
02:11:20.872 : en:02:11:20.872
02:17:53.263 : en:02:17:53.263

Скриншоты

Просьба к переливающим на другие сайты, в оформлении указывайте пожалуйста авторство рипа - Tiberiumsun69

[Цитировать]
mchael

Давно искал в хорошом качестве, а нашел 60fps! Спасибо автор и респект трекеру!

[Цитировать]
rembo1410

спасибо Привет
 
Показать сообщения:    

Текущее время: 19-Окт 04:44

Часовой пояс: UTC + 3


Вы не можете начинать темы
Вы не можете отвечать на сообщения
Вы не можете редактировать свои сообщения
Вы не можете удалять свои сообщения
Вы не можете голосовать в опросах
Вы не можете прикреплять файлы к сообщениям
Вы не можете скачивать файлы