[Цитировать]
Kryl

Фильм «Приготовься к кровавому аду» Фильм- Информация
Название: Падение Лондона
Оригинальное название: London Has Fallen
Год выхода: 2016
Жанр: Боевик, триллер, криминал
Режиссер: Бабак Наджафи
Сценарий: Крейтон Ротенбергер, Кэтрин Бенедикт, Кристиан Гьюдгэст
Продюсер: Джерард Батлер, Марк Гилл, Дэнни Лернер
В ролях: Джерард Батлер, Аарон Экхарт, Морган Фримен, Алон Абутбул, Валид Зуэйтер, Адель Беншериф, Мехди Дехби, Шивани Гаи, Мартин Петрушев, Оуэн Дэвис, Майкл Уилдман, Рада Митчелл, Стэйси Шэйн, Пенни Дауни, Кларксон Гай Уильямс, Патрик Кеннеди, Колин Сэлмон, Анджела Бассетт, Дебора Грант, Эндрю Плевин
--Сюжет:
Действие фильма начинается в Лондоне, где премьер-министр Великобритании погибает при загадочных обстоятельствах. На похоронах безусловно присутствуют руководители западного мира. Но то, что начиналось как наиболее безопасное событие на земле, превращается в опаснейшее покушение на самых мощных мировых лидеров, что в свою очередь ставит под угрозу будущее всего мира. Только три человека сохраняют надежду на предотвращение катастрофы: президент США, его верный помощник — агент спецслужбы и английский агент МИ-6, который никому не доверяет.- Страна: США, Великобритания, Болгария
Продолжительность: 01:38:41

Файл
Кодек: MPEG4/ISO/AVC H.264
Формат: MKV
Качество: BDRip 720p | 60 fps
Видео: 1280 x 536 (2.388) | 59.940 fps | 8.0 Мбит/сек
Аудио 1: AC3 | 5.1 | 48 kHz | 384 kbps | 16 bit | Дубляж iTunes |
Аудио 2: AC3 | 5.1 | 48 kHz | 384 kbps | 16 bit | ENG |

MedifInfo

Видео
Идентификатор : 1
Формат : AVC
Формат/Информация : Advanced Video Codec
Профиль формата : High@L4.1
Параметр CABAC формата : Да
Параметр ReFrames формата : 3 кадра
Идентификатор кодека : V_MPEG4/ISO/AVC
Продолжительность : 1 ч. 38 м.
Вид битрейта : Переменный
Битрейт : 7801 Кбит/сек
Максимальный битрейт : 8000 Кбит/сек
Ширина : 1280 пикселей
Высота : 536 пикселей
Соотношение сторон : 2,40:1
Режим частоты кадров : Постоянный
Частота кадров : 59,880 кадров/сек
Частота кадров в оригинале : 59,940 кадров/сек
Стандарт вещания : PAL
Цветовое пространство : YUV
Субдискретизация насыщенности : 4:2:0
Битовая глубина : 8 бит
Тип развёртки : Прогрессивная
Бит/(Пиксели*Кадры) : 0.190
Размер потока : 5,38 Гбайт (89%)
Язык : English
Default : Да
Forced : Нет
Основные цвета : BT.601 NTSC
Характеристики трансфера : BT.601
Коэффициенты матрицы : BT.601
colour_range : Limited
DURATION : 01:38:41.888000000
NUMBER_OF_FRAMES : 185060
NUMBER_OF_BYTES : 284252160
_STATISTICS_WRITING_APP : mkvmerge v7.6.0 ('Garden of Dreams') 32bit built on Feb 8 2015 12:51:39
_STATISTICS_WRITING_DATE_UTC : 2016-06-03 18:39:30
_STATISTICS_TAGS : BPS DURATION NUMBER_OF_FRAMES NUMBER_OF_BYTES
Аудио #1
Идентификатор : 2
Формат : AC-3
Формат/Информация : Audio Coding 3
Расширение режима : CM (complete main)
Параметр Endianness формата : Big
Идентификатор кодека : A_AC3
Продолжительность : 1 ч. 38 м.
Вид битрейта : Постоянный
Битрейт : 384 Кбит/сек
Каналы : 6 каналов
Расположение каналов : Front: L C R, Side: L R, LFE
Частота : 48,0 КГц
Битовая глубина : 16 бит
Метод сжатия : С потерями
Размер потока : 271 Мбайт (4%)
Заголовок : Дубляж - iTunes
Default : Да
Forced : Нет
Аудио #2
Идентификатор : 3
Формат : AC-3
Формат/Информация : Audio Coding 3
Расширение режима : CM (complete main)
Параметр Endianness формата : Big
Идентификатор кодека : A_AC3
Продолжительность : 1 ч. 38 м.
Вид битрейта : Постоянный
Битрейт : 384 Кбит/сек
Каналы : 6 каналов
Расположение каналов : Front: L C R, Side: L R, LFE
Частота : 48,0 КГц
Битовая глубина : 16 бит
Метод сжатия : С потерями
Размер потока : 271 Мбайт (4%)
Заголовок : ENGOriginal
Язык : English
Default : Нет
Forced : Нет
Меню
00:00:00.000 : en:00:00:00.000
00:05:23.281 : en:00:05:23.281
00:10:12.987 : en:00:10:12.987
00:15:53.202 : en:00:15:53.202
00:20:13.546 : en:00:20:13.546
00:23:41.462 : en:00:23:41.462
00:28:51.229 : en:00:28:51.229
00:33:30.383 : en:00:33:30.383
00:39:37.208 : en:00:39:37.208
00:45:05.286 : en:00:45:05.286
00:49:43.105 : en:00:49:43.105
00:53:26.954 : en:00:53:26.954
00:58:40.392 : en:00:58:40.392
01:02:42.467 : en:01:02:42.467
01:08:22.598 : en:01:08:22.598
01:12:51.075 : en:01:12:51.075
01:17:35.401 : en:01:17:35.401
01:20:58.270 : en:01:20:58.270
01:26:11.500 : en:01:26:11.500
01:31:42.247 : en:01:31:42.247

Релиз подготовлен 60 - fps



Последний раз редактировалось: Kryl (2016-08-02 12:20), всего редактировалось 4 раз(а)

[Цитировать]
toolmakerr

Трейлер впечатляет ! Не хотелось, чтобы фильм стал пророческим. Обстановка в мире не айс. Ну а мы с нетерпением ждём релиза фильма.

[Цитировать]
Kryl

5959Трейлер впечатляет ! Не хотелось, чтобы фильм стал пророческим. Обстановка в мире не айс. Ну а мы с нетерпением ждём релиза фильма.
Сегодня будет . Улыбаюсь

[Цитировать]
KROHA-ru

ждемс

Топик был перенесен из форума Новинки КиноПроката 60 FPS в форум Зарубежные фильмы 60 FPS
Kryl

[Цитировать]
HANNIBAL_68

Kryl, привет есть вопрос!!! как вы добавляете картинку в файл с фильмом (пример: )

[Цитировать]
anime81

thanks for this great action movie

[Цитировать]
ENIGMA

Огромное Спасибо! Овации

[Цитировать]
Sli1080Ti

Во всём виноваты Аннунаки рептилоиды Показываю пальцем Дьявол

[Цитировать]
georg

Обидно, что такой динамичный фильм с такой низкой скоростью передачи данных. Грущу
 
Показать сообщения:    

Текущее время: 09-Дек 22:23

Часовой пояс: UTC + 3


Вы не можете начинать темы
Вы не можете отвечать на сообщения
Вы не можете редактировать свои сообщения
Вы не можете удалять свои сообщения
Вы не можете голосовать в опросах
Вы не можете прикреплять файлы к сообщениям
Вы не можете скачивать файлы