[Цитировать]
Kryl

Падал прошлогодний снег (1983) DVDRip | 60 FPS-- Информация о фильме
Название: Падал прошлогодний снег
Год выхода: 1983
Жанр: Мультфильм, Короткометражка, Пластилиновая анимация
Режиссер: Александр Татарский
Композитор: Григорий Гладков
Персонажи: Станислав Садальский - рассказчик, озвучка.
--О Мультфильме:
Давненько когда-то, в одной весьма пластилиновой местности, жил да был главный герой — мужик, глуповатый, хитрый, ленивый, жадный,
да ещё к тому же и косноязычный (не выговаривает «некоторые буквы и цифры»). Очень любит пить пиво, постоянно попадает в дурацкие ситуации.
К счастью, у него есть жена — «строгая и авторитетная». Вся история начинается с того, что жена посылает мужика принести из лесу ёлку на Новый год.
Но новогодний лес — сказочное место, полное неожиданных событий и превращений. Запутавшись в чудесах, неоднократно потеряв и снова обретя собственный облик, мужик возвращается домой ни с чем...
- -
Страна: СССР / ТО "Экран"
Продолжительность: 00:19:51--Файл
Кодек: MPEG4/ISO/AVC H.264
Формат: MKV
Качество: DVDRip (Реставрация)
Видео: 720 x 574 (1.254) at 60.000 fps / Matroska at 5 Мбит/сек
Аудио : AC-3 | 192 Кбит/сек |2 канала | 48,0 КГц
--

MI

Видео
Идентификатор : 1
Формат : AVC
Формат/Информация : Advanced Video Codec
Профиль формата : High@L4.1
Параметр CABAC формата : Да
Параметр ReFrames формата : 8 кадров
Идентификатор кодека : V_MPEG4/ISO/AVC
Продолжительность : 19 м.
Битрейт : 4999 Кбит/сек
Ширина : 720 пикселей
Высота : 574 пикселя
Соотношение сторон : 5:4
Режим частоты кадров : Постоянный
Частота кадров : 60,000 кадров/сек
Цветовое пространство : YUV
Субдискретизация насыщенности : 4:2:0
Битовая глубина : 8 бит
Тип развёртки : Прогрессивная
Бит/(Пиксели*Кадры) : 0.202
Размер потока : 695 Мбайт (94%)
Заголовок : www.60-fps.org
Библиотека кодирования : x264 core 129 r2245 bc13772
Настройки программы : cabac=1 / ref=8 / deblock=1:-2:-2 / analyse=0x3:0x133 / me=esa / subme=9 / psy=1 / psy_rd=1.00:0.15 / mixed_ref=1 / me_range=32 / chroma_me=1 / trellis=2 / 8x8dct=1 / cqm=0 / deadzone=21,11 / fast_pskip=1 / chroma_qp_offset=-3 / threads=12 / lookahead_threads=2 / sliced_threads=0 / nr=0 / decimate=1 / interlaced=0 / bluray_compat=0 / constrained_intra=0 / bframes=3 / b_pyramid=2 / b_adapt=2 / b_bias=0 / direct=3 / weightb=1 / open_gop=0 / weightp=2 / keyint=600 / keyint_min=60 / scenecut=40 / intra_refresh=0 / rc_lookahead=60 / rc=2pass / mbtree=1 / bitrate=4999 / ratetol=1.0 / qcomp=0.60 / qpmin=0 / qpmax=69 / qpstep=4 / cplxblur=19.0 / qblur=0.0 / ip_ratio=1.40 / aq=1:1.00
Язык : English
Default : Нет
Forced : Нет
Аудио
Идентификатор : 2
Формат : AC-3
Формат/Информация : Audio Coding 3
Расширение режима : CM (complete main)
Параметр Endianness формата : Big
Идентификатор кодека : A_AC3
Продолжительность : 19 м.
Вид битрейта : Постоянный
Битрейт : 192 Кбит/сек
Каналы : 2 канала
Расположение каналов : Front: L R
Частота : 48,0 КГц
Битовая глубина : 16 бит
Метод сжатия : С потерями
Размер потока : 27,3 Мбайт (4%)
Заголовок : www.60-fps.org
Язык : Russian
Default : Нет
Forced : Нет
 
Показать сообщения:    

Текущее время: 07-Дек 19:21

Часовой пояс: UTC + 3


Вы не можете начинать темы
Вы не можете отвечать на сообщения
Вы не можете редактировать свои сообщения
Вы не можете удалять свои сообщения
Вы не можете голосовать в опросах
Вы не можете прикреплять файлы к сообщениям
Вы не можете скачивать файлы