СюжетВон Фэйхун (в некоторых переводах — Фредди Вонг) — сын мастера кунг-фу. Недисциплинированный хулиган, но при этом имеющий прекрасные способности к кунг-фу, он не слушается отца и дерётся с каждым встречным, доставляя этим неприятности отцу и его школе. Отец отдаёт его для обучения старику Соу, знатоку стиля «восьми пьяных святых». Начальное обучение новому стилю очень тяжёлое и выглядит как откровенное издевательство учителя над учеником. Парень всеми силами пытается отлынивать и, в конце концов, сбегает от учителя… и тут же нарывается на неприятности — сталкивается с мастером по прозвищу Молниеносная Нога, зарабатывающим на жизнь заказными убийствами. Мастер не убивает молодого нахала, а лишь унижает, демонстрируя несовершенство его кунг-фу, и обращает в бегство раздетым. Подавленный позорным поражением, Фэйхун (Фредди) возвращается к учителю, извиняется и просит учить его дальше. В результате он за год осваивает новый стиль, став действительно непобедимым. В финале он успевает победить Молниеносную Ногу, которому заплатили за убийство его отца, и спасти отца от гибели.--Историческая основаПерсонаж Джеки Чана Хуан Фэйхун — реальная фигура китайской истории, мастер единоборств, целитель и революционер. Он стал героем китайского фольклора и много раз появлялся в фильмах и телевизионных программах Гонконга. Другой персонаж, Су Хай или "Нищий Со" — также основан на историческом Соу Чхане (Су Цане), одном из "Десяти Кантонских Тигров", в число которых входил и отец Фэйхуна Вон Кхейин[en] (Хуан Циин).--Продолжения и подражанияВ 1979 году Юань Сяотянь снова сыграл роль Су Хая в фильме Юань Хэпина «Пьяный кулак Юга и Севера», который иногда называют «Пьяный мастер-2», хотя он не является настоящим продолжением «Пьяного мастера», и в нём нет персонажа Джеки Чана. Настоящее продолжение «Пьяный мастер 2» вышло в 1994 году, этот фильм известен также как «Легенда о пьяном мастере». Несмотря на «продолжаемость», фильм практически не имеет ничего общего с оригиналом.
Было снято множество подражаний: Пьяный монах из Шаолиня (1982) с Гордоном Лю, Пьяный Тай Чи (1984) с Донни Йеном, Пьяный мастер 3 (Drunken Master III; 1994) с Энди Лау.
В 2010 году Юнь Вопхин снял фильм Настоящая легенда, который можно назвать приквелом, так как в нём объясняется, почему Нищий Со стал пьяницей.--

Пьяный мастер

Пьяный мастер / Jui kuen
-Год выпуска: 1978
Страна: Гонконг
Жанр: боевик, комедия
Продолжительность: 01:51:11
Перевод: Профессиональный многоголосый
Субтитры: русские (Полные)-Режиссер: Юэнь Воо-пин / Yuen Woo-ping-В ролях: Джеки Чан (Wong Fei-Hung), Сиу Тиен Юэнь (Su Hua Chi / Sam Seed), Янг Ли Хванг (Thunderleg), Кау Лам (Wong Kei-Ying), Линда Лин (Fei-Hung's Aunt), Дин Шек (Professor Kai-Hsien), Чинг Чианг (Da Kuai-Dai), Чи Джан Ли (Ying's Student), Шун-Йи Юэнь (Chen Kuo-Wei), Джинг Мэн Фанг (Li Wan-Hao), Чен Тиен Лунг (Bully), Квай Шан (Iron Head Rat)-Описание:
Молодой Вонг Фей-Хун, будущий народный герой Китая, защитник обездоленных и обиженных, в молодости был весьма строптив и дерзок. Настолько, что отец отослал неуправляемого сына к дяде, известному мастеру кунг-фу и большому эксперту в двух вещах: распитии крепких спиртных напитков и выбивании дури из самонадеянных юнцов. Неудивительно, что герой сбегает от дяди-садиста при первой же возможности.
Увы, тут же побитый и униженный бандитом-профи, он возвращается назад к Пьяному Мастеру. Придется ему, скрипя зубами, терпеть иезуитские методы воспитания дяди, дабы потом, постигнув все тонкости боевых искусств, отомстить своему обидчику, который, к тому же, собирается убить его отца...-
Релиз by: -Качество: BDRip-AVC 60fps
Формат: MKV
Видео кодек: AVC
Аудио кодек:AC3
Видео: AVC, 1024x424 (2.40:1), 3900 kbps, 59,940 fps, 0,150 bpp
Аудио: русский / AC3 / 2.0 / 48 kHz / 192 kbps / 16 bit |Многоголосый, закадровый ОРТ|
Навигация по главам: есть- -

MI

General
Unique ID : 248179371244737769758524267497671544633 (0xBAB59BB7511F73678E7645F8AFB6CF39)
Complete name : A:\Пьяный мастер BDrip-AVC 60fps\Пьяный мастер 1.mkv
Format : Matroska
Format version : Version 4 / Version 2
File size : 3.18 GiB
Duration : 1h 51mn
Overall bit rate : 4 097 Kbps
Movie name : R.G HD-Films by Tiberiumsun69
Encoded date : UTC 2015-05-18 10:53:25
Writing application : mkvmerge v7.8.0 ('River Man') 64bit built on Mar 27 2015 16:31:37
Writing library : libebml v1.3.1 + libmatroska v1.4.2
Attachment : Yes / Yes
Video
ID : 1
Format : AVC
Format/Info : Advanced Video Codec
Format profile : High@L4.1
Format settings, CABAC : Yes
Format settings, ReFrames : 4 frames
Codec ID : V_MPEG4/ISO/AVC
Duration : 1h 51mn
Bit rate : 3 900 Kbps
Width : 1 024 pixels
Height : 424 pixels
Display aspect ratio : 2.40:1
Frame rate : 59.940 fps
Color space : YUV
Chroma subsampling : 4:2:0
Bit depth : 8 bits
Scan type : Progressive
Bits/(Pixel*Frame) : 0.150
Stream size : 2.97 GiB (93%)
Title : R.G HD-Films by Tiberiumsun69
Writing library : x264 core 146 r2538 121396c
Encoding settings : cabac=1 / ref=4 / deblock=1:-2:-1 / analyse=0x3:0x113 / me=umh / subme=11 / psy=1 / psy_rd=1.00:0.20 / mixed_ref=1 / me_range=32 / chroma_me=1 / trellis=2 / 8x8dct=1 / cqm=0 / deadzone=21,11 / fast_pskip=0 / chroma_qp_offset=-3 / threads=12 / lookahead_threads=1 / sliced_threads=0 / nr=0 / decimate=0 / interlaced=0 / bluray_compat=0 / constrained_intra=0 / bframes=3 / b_pyramid=2 / b_adapt=2 / b_bias=0 / direct=3 / weightb=1 / open_gop=0 / weightp=2 / keyint=600 / keyint_min=59 / scenecut=40 / intra_refresh=0 / rc_lookahead=60 / rc=2pass / mbtree=1 / bitrate=3900 / ratetol=1.0 / qcomp=0.60 / qpmin=0 / qpmax=69 / qpstep=4 / cplxblur=20.0 / qblur=0.5 / vbv_maxrate=50000 / vbv_bufsize=62500 / nal_hrd=none / filler=0 / ip_ratio=1.40 / aq=1:1.00
Language : English
Default : Yes
Forced : No
Audio
ID : 2
Format : AC-3
Format/Info : Audio Coding 3
Mode extension : CM (complete main)
Codec ID : A_AC3
Duration : 1h 51mn
Bit rate mode : Constant
Bit rate : 192 Kbps
Channel(s) : 2 channels
Channel positions : Front: L R
Sampling rate : 48.0 KHz
Bit depth : 16 bits
Compression mode : Lossy
Stream size : 153 MiB (5%)
Title : Профессиональный, многоголосый , закадровый (ОРТ)
Language : Russian
Default : Yes
Forced : No
Text
ID : 3
Format : UTF-8
Codec ID : S_TEXT/UTF8
Codec ID/Info : UTF-8 Plain Text
Title : Полные
Language : Russian
Default : No
Forced : No
Menu
00:00:00.000 : en:Chapter 1
00:07:46.048 : en:Chapter 2
00:15:18.918 : en:Chapter 3
00:25:17.723 : en:Chapter 4
00:31:18.542 : en:Chapter 5
00:41:02.543 : en:Chapter 6
00:47:11.244 : en:Chapter 7
00:51:10.275 : en:Chapter 8
00:58:07.692 : en:Chapter 9
01:05:03.940 : en:Chapter 10
01:11:51.930 : en:Chapter 11
01:16:48.645 : en:Chapter 12
01:21:56.493 : en:Chapter 13
01:26:35.354 : en:Chapter 14
01:36:07.552 : en:Chapter 15
01:39:30.838 : en:Chapter 16

Пьяный мастер 2

Пьяный мастер 2 / Jui kuen II
-Год выпуска: 1994
Страна: Гонконг
Жанр: боевик, комедия
Продолжительность: 01:42:30
Перевод: Профессиональный многоголосый
Субтитры: русские (Полные)-Режиссер: Лю Чя-Лян / Liu Chia-Liang-В ролях: Джеки Чан (Wong Fei-hung), Ланг Ти (Wong Kei-ying, Wong's Father), Анита Муи (Ling - Wong's Step-Mother), Феликс Вонг (Tsang), Лю Чя-Лян (Master Fu Wen-Chi), Кен Ло (John), Кар Лок Чин (Fo Sang), Ху Сунг Пак (Henry), Чи-Квонг Чеунг (Tso), Йи-Сан Хан (Uncle Hing), Энди Лау (Counter Intelligence Officer), Вин-Фон Хо (Fun)-Описание:
Пьяный мастер возвращается, его стиль становится еще более отточенным и смешным! Возвращаясь домой из шопинг-тура вместе со своим отцом, знаменитый «пьяный мастер» Вонг-Фей Хунг оказывается вовлеченным в потасовку между иностранцами, пытающимися вывезти из Китая ценные древние реликвии, и патриотами, которые хотят помешать вывозу этих предметов из страны.
К сожалению, отец Вонг-Фей Хунга никогда не занимался ни одним из видов спорта, кроме пьяных драк, поэтому герою приходится сражаться практически одному против толпы. Но как всегда его удивительный стиль боя помогает ему расправиться с многочисленными врагами.-
Релиз by: -Качество: BDRip-AVC 60fps
Формат: MKV
Видео кодек: AVC
Аудио кодек:AC3
Видео: AVC, 1024x440 (2.35:1), 4050 kbps, 59,940 fps, 0,150 bpp
Аудио: русский / AC3 / 2.0 / 48 kHz / 192 kbps / 16 bit |Многоголосый, закадровый СТС|
Навигация по главам: есть- -

MI

General
Unique ID : 197916588130875954166999063075924826777 (0x94E5592DF0574227947A9AB74ACD5A99)
Complete name : A:\Пьяный мастер BDrip-AVC 60fps\Пьяный мастер 2.mkv
Format : Matroska
Format version : Version 4 / Version 2
File size : 3.04 GiB
Duration : 1h 42mn
Overall bit rate : 4 246 Kbps
Movie name : R.G HD-Films by Tiberiumsun69
Encoded date : UTC 2015-05-18 10:59:58
Writing application : mkvmerge v7.8.0 ('River Man') 64bit built on Mar 27 2015 16:31:37
Writing library : libebml v1.3.1 + libmatroska v1.4.2
Attachment : Yes / Yes
Video
ID : 1
Format : AVC
Format/Info : Advanced Video Codec
Format profile : High@L4.1
Format settings, CABAC : Yes
Format settings, ReFrames : 4 frames
Codec ID : V_MPEG4/ISO/AVC
Duration : 1h 42mn
Bit rate : 4 050 Kbps
Width : 1 024 pixels
Height : 440 pixels
Display aspect ratio : 2.35:1
Frame rate : 59.940 fps
Color space : YUV
Chroma subsampling : 4:2:0
Bit depth : 8 bits
Scan type : Progressive
Bits/(Pixel*Frame) : 0.150
Stream size : 2.84 GiB (93%)
Title : R.G HD-Films by Tiberiumsun69
Writing library : x264 core 146 r2538 121396c
Encoding settings : cabac=1 / ref=4 / deblock=1:-2:-1 / analyse=0x3:0x113 / me=umh / subme=11 / psy=1 / psy_rd=1.00:0.20 / mixed_ref=1 / me_range=32 / chroma_me=1 / trellis=2 / 8x8dct=1 / cqm=0 / deadzone=21,11 / fast_pskip=0 / chroma_qp_offset=-3 / threads=12 / lookahead_threads=1 / sliced_threads=0 / nr=0 / decimate=0 / interlaced=0 / bluray_compat=0 / constrained_intra=0 / bframes=3 / b_pyramid=2 / b_adapt=2 / b_bias=0 / direct=3 / weightb=1 / open_gop=0 / weightp=2 / keyint=600 / keyint_min=59 / scenecut=40 / intra_refresh=0 / rc_lookahead=60 / rc=2pass / mbtree=1 / bitrate=4050 / ratetol=1.0 / qcomp=0.60 / qpmin=0 / qpmax=69 / qpstep=4 / cplxblur=20.0 / qblur=0.5 / vbv_maxrate=50000 / vbv_bufsize=62500 / nal_hrd=none / filler=0 / ip_ratio=1.40 / aq=1:1.00
Language : English
Default : Yes
Forced : No
Audio
ID : 2
Format : AC-3
Format/Info : Audio Coding 3
Mode extension : CM (complete main)
Codec ID : A_AC3
Duration : 1h 42mn
Bit rate mode : Constant
Bit rate : 192 Kbps
Channel(s) : 2 channels
Channel positions : Front: L R
Sampling rate : 48.0 KHz
Bit depth : 16 bits
Compression mode : Lossy
Stream size : 141 MiB (5%)
Title : Многоголосый, закадровый СТС
Language : Russian
Default : Yes
Forced : No
Text
ID : 3
Format : UTF-8
Codec ID : S_TEXT/UTF8
Codec ID/Info : UTF-8 Plain Text
Title : Полные
Language : Russian
Default : No
Forced : No
Menu
00:00:00.000 : en:Opening Credits / Paying Dues
00:05:54.271 : en:Gone Wild!
00:14:38.795 : en:Man of Intelligence
00:17:31.300 : en:Dirty Ginseng
00:25:21.228 : en:Overtime Hours, Overtime Pay!
00:28:59.279 : en:Drunken Boxing
00:33:53.865 : en:Chinese Mafia in Bad English Suits
00:46:09.892 : en:"You're Not My Son"
00:54:18.839 : en:Drunk and Alone, with No Home
00:58:44.563 : en:Father Forgive Me
01:01:06.913 : en:Eureka!
01:11:13.144 : en:"Seal of Approval"
01:17:15.673 : en:Shady Antiques
01:20:10.848 : en:Man in Battle
01:38:52.718 : en:Proud Family
01:39:40.391 : en:End Credits
Автор рипа: Tiberiumsun69

[Цитировать]
demon93

Есть возможность добавить к первой части дорожку с переводом Пучкова "Гоблина"?)

[Цитировать]
ENIGMA

Большое Спасибо!
 
Показать сообщения:    

Текущее время: 23-Сен 01:30

Часовой пояс: UTC + 3


Вы не можете начинать темы
Вы не можете отвечать на сообщения
Вы не можете редактировать свои сообщения
Вы не можете удалять свои сообщения
Вы не можете голосовать в опросах
Вы не можете прикреплять файлы к сообщениям
Вы не можете скачивать файлы