BIG ASS CHICKS IN ACTION (2017) Full HD 1080p | 60 fps Megan Rain (2017) Full HD 1080p | 60 fps SKILLED SLUT LOVES HER JOB (2017) Full HD 1080p | 60 fps SASHA FOXXX BLOWJOB (2017) Full HD 1080p | 60 fps HOT BLACK GIRLS CREAMPIED(2017) Full HD 1080p | 60 fps Natalia Starr (2017) Full HD 1080p | 60 fps Honey Gold (2017) HD 720p | 60 fps Preppy Girl Threesome Get Three BBCs (2016) HD 1080p | 60 fps Couple (2016) Full HD 1080p | 60 fps Awesome Threesome With Bride and Her Bridesmaid (2017) Full HD 1080p | 60 fps Illusion (2016) Full HD 1080p | 60 fps MISHA CROSS & TINA KAY - GAME OF THRONES XXX PARODY (2017) UHD 1440p | 2K | 3D-Video | HSBS | 60 fps
  1. Стаж:
    1 год 5 месяцев
    Сообщений:
    340
    Пол:
    Мужской
     
    Информация
    Название: OVERCROTCHPARODY
    Год выхода: 2017
    Жанр: Group,Sex,Hardcore,Threesome,Uniform,POV,Big Ass
    В ролях: ---
    --Сюжет:
    Virtual Reality Pov Uniform Threesome Big Ass Overcrotchparody
    Страна: США
    Продолжительность: 00:43:08

    Файл
    Кодек: MPEG4/ISO/AVC High@L4.1
    Формат: MP4
    Качество: Full HD 1080p | 3D-Video | 60 fps
    Видео: 2160 x 1080 (2.000) | 60.000 fps | 5 Мбит/сек
    Аудио: AAC | 2.0 | 48 kHz |192 Кбит/сек | 16 bit | ENG |

    MedifInfo

    Видео
    Идентификатор : 1
    Формат : AVC
    Формат/Информация : Advanced Video Codec
    Профиль формата : High@L4.1
    Параметр CABAC формата : Да
    Параметр ReFrames формата : 4 кадра
    Идентификатор кодека : avc1
    Идентификатор кодека/Информация : Advanced Video Coding
    Продолжительность : 43 м. 8 с.
    Битрейт : 5000 Кбит/сек
    Ширина : 2160 пикселей
    Высота : 1080 пикселей
    Соотношение сторон : 2,000
    Режим частоты кадров : Постоянный
    Частота кадров : 60,000 кадров/сек
    Цветовое пространство : YUV
    Субдискретизация насыщенности : 4:2:0
    Битовая глубина : 8 бит
    Тип развёртки : Прогрессивная
    Бит/(Пиксели*Кадры) : 0.036
    Размер потока : 1,50 Гбайт (96%)
    Библиотека кодирования : x264 core 152 r19 ba24899
    Настройки программы : cabac=1 / ref=3 / deblock=1:-1:-1 / analyse=0x3:0x113 / me=hex / subme=8 / psy=1 / psy_rd=1.00:0.15 / mixed_ref=1 / me_range=16 / chroma_me=1 / trellis=2 / 8x8dct=1 / cqm=0 / deadzone=21,11 / fast_pskip=1 / chroma_qp_offset=-3 / threads=4 / lookahead_threads=1 / sliced_threads=0 / nr=0 / decimate=1 / interlaced=0 / bluray_compat=0 / constrained_intra=0 / bframes=3 / b_pyramid=2 / b_adapt=1 / b_bias=0 / direct=3 / weightb=1 / open_gop=0 / weightp=2 / keyint=250 / keyint_min=25 / scenecut=0 / intra_refresh=0 / rc_lookahead=50 / rc=abr / mbtree=1 / bitrate=5000 / ratetol=1.0 / qcomp=0.60 / qpmin=0 / qpmax=69 / qpstep=4 / ip_ratio=1.40 / aq=1:1.00
    Аудио
    Идентификатор : 2
    Формат : AAC
    Формат/Информация : Advanced Audio Codec
    Профиль формата : LC
    Идентификатор кодека : 40
    Продолжительность : 43 м. 8 с.
    Duration_LastFrame : -15 мс.
    Вид битрейта : Постоянный
    Битрейт : 192 Кбит/сек
    Каналы : 2 канала
    Расположение каналов : Front: L R
    Частота : 44,1 КГц
    Частота кадров : 43,066 кадра/сек (1024 spf)
    Метод сжатия : С потерями
    Размер потока : 60,1 Мбайт (4%)
    Default : Да
    Alternate group : 1

    Скрин

  2. Стаж:
    11 месяцев 11 дней
    Сообщений:
    1
    Пол:
    Не указан
     
    Добавьте еще этот - Our treasure – Misha Cross & Rachele Richie Hardcore Threesome
    31-Авг-2017 04:07 (спустя 14 часов)
  3. Стаж:
    5 месяцев 1 день
    Сообщений:
    1
    Пол:
    Мужской
     
    OVERCROTCHPARODY (2017) Full HD 1080p | 3D-Video | HSBS | 60 fps
    БРЕД, сори, нооо - Брееееед...
    01-Сен-2017 03:29 (спустя 23 часа)
  4. Стаж:
    1 год 5 месяцев
    Сообщений:
    340
    Пол:
    Мужской
     
    Михаил Павлов, тебе не понравилось видео,или заголовок ? Смеюсь
    01-Сен-2017 11:49 (спустя 8 часов)
  5. Стаж:
    24 дня
    Сообщений:
    1
    Пол:
    Не указан
     
    thank you! the best
    29-Дек-2017 11:57 (спустя 3 месяца 28 дней)


Вы не можете начинать темы
Вы не можете отвечать на сообщения
Вы не можете редактировать свои сообщения
Вы не можете удалять свои сообщения
Вы не можете голосовать в опросах
Вы не можете прикреплять файлы к сообщениям
Вы не можете скачивать файлы