1. Longevity:
    7 years
    Posts:
    2413
    Gender:
    Male
    «Nothing haunts like the past»- Информация
    Название: Отступление
    Оригинальное название: Backtrack
    Год выхода: 2015
    Жанр: Триллер, Детектив
    Режиссер: Майкл Петрони
    Сценарий: Майкл Петрони
    Продюсер: Антония Барнард, Джэми Хилтон, Майкл Петрони
    В ролях: Эдриан Броуди, Сэм Нил, Брюс Спенс, Робин МакЛиви, Дженни Бейрд, Анна Лизе Филлипс, Хлоя Бэйлисс, Ольга Миллер, Малкольм Кеннард, Милан Пулвермахер
    --Сюжет:
    Жизнь психолога Питера Бауэрса меняется не в лучшую сторону, когда он понимает, что его пациенты — призраки людей, умерших в результате несчастного случая 20 лет назад. Боясь сойти с ума, Питер возвращается в свой родной город, где раскрывает ужасающую правду, которую может исправить только он.- Страна: Австралия, Великобритания, ОАЭ
    Продолжительность: 01:30:06

    Файл
    Кодек: MPEG4/ISO/AVC/H.264
    Формат: MKV
    Качество: BDRip 720p | 60 fps
    Видео: 1280 x 530 (2.415) | 59.940 fps | 8.0 Мбит/сек
    Аудио 1: AC3 | 2.0 | 48 kHz | 192 kbps | 16 bit | Любительский двухголосый закадровый - Parovoz Production |
    Аудио 2: AC3 | 5.1 | 48 kHz | 384 kbps | 16 bit | ENG |
    Субтитры: Eng

    MedifInfo

    Видео
    Идентификатор : 1
    Формат : AVC
    Формат/Информация : Advanced Video Codec
    Профиль формата : [email protected]
    Параметр CABAC формата : Да
    Параметр ReFrames формата : 5 кадров
    Идентификатор кодека : V_MPEG4/ISO/AVC
    Продолжительность : 1 ч. 30 м.
    Битрейт : 7999 Кбит/сек
    Ширина : 1280 пикселей
    Высота : 530 пикселей
    Соотношение сторон : 2,40:1
    Режим частоты кадров : Постоянный
    Частота кадров : 59,880 кадров/сек
    Частота кадров в оригинале : 59,940 кадров/сек
    Цветовое пространство : YUV
    Субдискретизация насыщенности : 4:2:0
    Битовая глубина : 8 бит
    Тип развёртки : Прогрессивная
    Бит/(Пиксели*Кадры) : 0.197
    Размер потока : 4,92 Гбайт (91%)
    Заголовок : www.60-fps.org
    Библиотека кодирования : x264 core 148 r2638 7599210
    Настройки программы : cabac=1 / ref=5 / deblock=1:-3:-3 / analyse=0x3:0x113 / me=umh / subme=8 / psy=1 / psy_rd=1.00:0.25 / mixed_ref=1 / me_range=32 / chroma_me=1 / trellis=1 / 8x8dct=1 / cqm=0 / deadzone=6,6 / fast_pskip=1 / chroma_qp_offset=-4 / threads=12 / lookahead_threads=2 / sliced_threads=0 / nr=0 / decimate=0 / interlaced=0 / bluray_compat=0 / constrained_intra=0 / bframes=3 / b_pyramid=2 / b_adapt=2 / b_bias=0 / direct=3 / weightb=1 / open_gop=0 / weightp=2 / keyint=599 / keyint_min=59 / scenecut=40 / intra_refresh=0 / rc_lookahead=50 / rc=2pass / mbtree=1 / bitrate=7999 / ratetol=1.0 / qcomp=0.80 / qpmin=0 / qpmax=69 / qpstep=4 / cplxblur=20.0 / qblur=0.5 / vbv_maxrate=62500 / vbv_bufsize=78125 / nal_hrd=none / filler=0 / ip_ratio=1.10 / aq=1:0.50
    Default : Да
    Forced : Нет
    Аудио #1
    Идентификатор : 2
    Формат : AC-3
    Формат/Информация : Audio Coding 3
    Расширение режима : CM (complete main)
    Параметр Endianness формата : Big
    Идентификатор кодека : A_AC3
    Продолжительность : 1 ч. 30 м.
    Вид битрейта : Постоянный
    Битрейт : 192 Кбит/сек
    Каналы : 2 канала
    Расположение каналов : Front: L R
    Частота : 48,0 КГц
    Битовая глубина : 16 бит
    Метод сжатия : С потерями
    Размер потока : 124 Мбайт (2%)
    Заголовок : Любительский двухголосый закадровый - Parovoz Production
    Язык : Russian
    Default : Да
    Forced : Нет
    Аудио #2
    Идентификатор : 3
    Формат : AC-3
    Формат/Информация : Audio Coding 3
    Расширение режима : CM (complete main)
    Параметр Endianness формата : Big
    Идентификатор кодека : A_AC3
    Продолжительность : 1 ч. 30 м.
    Вид битрейта : Постоянный
    Битрейт : 384 Кбит/сек
    Каналы : 6 каналов
    Расположение каналов : Front: L C R, Side: L R, LFE
    Частота : 48,0 КГц
    Битовая глубина : 16 бит
    Метод сжатия : С потерями
    Размер потока : 247 Мбайт (4%)
    Заголовок : Eng
    Язык : English
    Default : Нет
    Forced : Нет
    DURATION : 01:20:42.628000000
    NUMBER_OF_FRAMES : 531
    NUMBER_OF_BYTES : 15253
    _STATISTICS_WRITING_APP : mkvmerge v7.6.0 ('Garden of Dreams') 32bit built on Feb 8 2015 12:51:39
    _STATISTICS_WRITING_DATE_UTC : 2017-03-12 05:32:24
    _STATISTICS_TAGS : BPS DURATION NUMBER_OF_FRAMES NUMBER_OF_BYTES
    Текст #1
    Идентификатор : 4
    Формат : UTF-8
    Идентификатор кодека : S_TEXT/UTF8
    Идентификатор кодека/Информация : UTF-8 Plain Text
    Язык : English
    Default : Нет
    Forced : Нет
    DURATION : 01:22:35.283000000
    NUMBER_OF_FRAMES : 677
    NUMBER_OF_BYTES : 18616
    _STATISTICS_WRITING_APP : mkvmerge v7.6.0 ('Garden of Dreams') 32bit built on Feb 8 2015 12:51:39
    _STATISTICS_WRITING_DATE_UTC : 2017-03-12 05:32:24
    _STATISTICS_TAGS : BPS DURATION NUMBER_OF_FRAMES NUMBER_OF_BYTES
    Текст #2
    Идентификатор : 5
    Формат : UTF-8
    Идентификатор кодека : S_TEXT/UTF8
    Идентификатор кодека/Информация : UTF-8 Plain Text
    Заголовок : SDH
    Язык : English
    Default : Нет
    Forced : Нет
    Текст #3
    Идентификатор : 6
    Формат : PGS
    Режим смешивания : zlib
    Идентификатор кодека : S_HDMV/PGS
    Идентификатор кодека/Информация : The same subtitle format used on BDs/HD-DVDs
    Заголовок : English-PGS
    Язык : English
    Default : Нет
    Forced : Нет
    Меню
    00:00:00.000 : en:00:00:00.000
    00:18:23.352 : en:00:18:23.352
    00:31:02.360 : en:00:31:02.360
    00:40:07.530 : en:00:40:07.530
    00:52:21.347 : en:00:52:21.347
    01:00:55.443 : en:01:00:55.443
    01:14:33.761 : en:01:14:33.761
    01:23:51.777 : en:01:23:51.777

    Release was prepared by 60-fps.org



You cannot post new topics in this forum
You cannot reply to topics in this forum
You cannot edit your posts in this forum
You cannot delete your posts in this forum
You cannot vote in polls in this forum
You cannot attach files in this forum
You cannot download files in this forum