VIP

Новые мутанты / The New Mutants (2020) BDRip 1080p | 60 fps Закат цивилизации / Extinction (2018) BDRip 1080p | 60 fps Доктор Стрэндж / Doctor Strange (2016) BDRip 1080p | 60 fps Проект Power / Project Power (2020) WEBRip 1080p | 60 fps Грань будущего / Edge of Tomorrow (2014) BDRip 1080p | 60 fps Мулан / Mulan (2020) BDRip 1080p | 60 fps Джокер / Joker (2019) BDRip 1080p | 60 fps Гренландия / Greenland (2020) BDRip 1080p | 60 fps
  1. Longevity:
    6 years 7 months
    Posts:
    2414
    Gender:
    Male
    «Justice has a bad side»- Информация
    Название: Отряд самоубийц
    Оригинальное название: Suicide Squad
    Год выхода: 2016
    Жанр: Фантастика, боевик, триллер, комедия, криминал, приключения
    Режиссер: Дэвид Эйр
    Сценарий: Дэвид Эйр, Джон Острандер
    Продюсер: Брюс Франклин, Энди Хорвитц, Джефф Джонс
    В ролях: Марго Робби, Уилл Смит, Джаред Лето, Джай Кортни, Кара Делевинь, Джей Эрнандес, Юэль Киннаман, Виола Дэвис
    --Сюжет:
    Правительство решает дать команде суперзлодеев шанс на искупление. Подвох в том, что их отправляют на миссию, где они, вероятнее всего, погибнут.- Страна: США
    Продолжительность: 02:14:32

    Файл
    Кодек: MPEG4/ISO/AVC H.264
    Формат: MKV
    Качество: BDRip 720p | 60 fps
    Видео: 1280 x 532 (2.406) | 59.940 fps | 10.0 Мбит/сек
    Аудио 1: AC3 | 5.1 | 48 kHz | 640 kbps | 16 bit | Дубляж + А.Матвеев на расширенные места |
    Аудио 2: AC3 | 5.1 | 48 kHz | 640 kbps | 16 bit | Авторский - А. Матвеев |
    Аудио 3: AC3 | 5.1 | 48 kHz | 640 kbps | 16 bit | ENG |
    Субтитры: Русские (forced, full), English

    MedifInfo

    Видео
    Идентификатор : 1
    Формат : AVC
    Формат/Информация : Advanced Video Codec
    Профиль формата : [email protected]
    Параметр CABAC формата : Да
    Параметр ReFrames формата : 3 кадра
    Идентификатор кодека : V_MPEG4/ISO/AVC
    Продолжительность : 2 ч. 14 м.
    Вид битрейта : Переменный
    Битрейт : 9534 Кбит/сек
    Максимальный битрейт : 10000 Кбит/сек
    Ширина : 1280 пикселей
    Высота : 532 пикселя
    Соотношение сторон : 2,40:1
    Режим частоты кадров : Постоянный
    Частота кадров : 59,880 кадров/сек
    Частота кадров в оригинале : 59,940 кадров/сек
    Стандарт вещания : PAL
    Цветовое пространство : YUV
    Субдискретизация насыщенности : 4:2:0
    Битовая глубина : 8 бит
    Тип развёртки : Прогрессивная
    Бит/(Пиксели*Кадры) : 0.234
    Размер потока : 8,96 Гбайт (82%)
    Заголовок : www.60-fps.org
    Язык : English
    Default : Да
    Forced : Нет
    Основные цвета : BT.601 NTSC
    Характеристики трансфера : BT.601
    Коэффициенты матрицы : BT.601
    colour_range : Limited
    Аудио #1
    Идентификатор : 2
    Формат : AC-3
    Формат/Информация : Audio Coding 3
    Расширение режима : CM (complete main)
    Параметр Endianness формата : Big
    Идентификатор кодека : A_AC3
    Продолжительность : 2 ч. 14 м.
    Вид битрейта : Постоянный
    Битрейт : 640 Кбит/сек
    Каналы : 6 каналов
    Расположение каналов : Front: L C R, Side: L R, LFE
    Частота : 48,0 КГц
    Битовая глубина : 16 бит
    Метод сжатия : С потерями
    Размер потока : 616 Мбайт (5%)
    Заголовок : Дубляж + А.Матвеев на расширенные места
    Язык : Russian
    Default : Да
    Forced : Нет
    Аудио #2
    Идентификатор : 3
    Формат : AC-3
    Формат/Информация : Audio Coding 3
    Расширение режима : CM (complete main)
    Параметр Endianness формата : Big
    Идентификатор кодека : A_AC3
    Продолжительность : 2 ч. 14 м.
    Вид битрейта : Постоянный
    Битрейт : 640 Кбит/сек
    Каналы : 6 каналов
    Расположение каналов : Front: L C R, Side: L R, LFE
    Частота : 48,0 КГц
    Битовая глубина : 16 бит
    Метод сжатия : С потерями
    Размер потока : 616 Мбайт (5%)
    Заголовок : Авторский - А. Матвеев
    Язык : Russian
    Default : Нет
    Forced : Нет
    Аудио #3
    Идентификатор : 4
    Формат : AC-3
    Формат/Информация : Audio Coding 3
    Расширение режима : CM (complete main)
    Параметр Endianness формата : Big
    Идентификатор кодека : A_AC3
    Продолжительность : 2 ч. 14 м.
    Вид битрейта : Постоянный
    Битрейт : 640 Кбит/сек
    Каналы : 6 каналов
    Расположение каналов : Front: L C R, Side: L R, LFE
    Частота : 48,0 КГц
    Битовая глубина : 16 бит
    Метод сжатия : С потерями
    Размер потока : 616 Мбайт (5%)
    Заголовок : Origina
    Язык : English
    Default : Нет
    Forced : Нет
    Текст #1
    Идентификатор : 5
    Формат : UTF-8
    Идентификатор кодека : S_TEXT/UTF8
    Идентификатор кодека/Информация : UTF-8 Plain Text
    Заголовок : Forced [Matveev]
    Язык : Russian
    Default : Да
    Forced : Нет
    Текст #2
    Идентификатор : 6
    Формат : UTF-8
    Идентификатор кодека : S_TEXT/UTF8
    Идентификатор кодека/Информация : UTF-8 Plain Text
    Заголовок : Full [iTunes]
    Язык : Russian
    Default : Нет
    Forced : Нет
    Текст #3
    Идентификатор : 7
    Формат : UTF-8
    Идентификатор кодека : S_TEXT/UTF8
    Идентификатор кодека/Информация : UTF-8 Plain Text
    Заголовок : Full
    Язык : English
    Default : Нет
    Forced : Нет
    Меню
    00:00:00.000 : en:00:00:00.000
    00:09:08.506 : en:00:09:08.506
    00:20:22.972 : en:00:20:22.972
    00:31:14.706 : en:00:31:14.706
    00:41:04.879 : en:00:41:04.879
    00:52:21.805 : en:00:52:21.805
    01:04:48.843 : en:01:04:48.843
    01:21:12.743 : en:01:21:12.743
    01:32:11.943 : en:01:32:11.943
    01:42:57.671 : en:01:42:57.671
    01:50:58.652 : en:01:50:58.652
    02:04:04.812 : en:02:04:04.812

    Release was prepared by 60-fps.org



    Last edited by Kryl on 2016-12-01 10:16; edited 2 times in total
  2. Longevity:
    5 years 7 months
    Posts:
    38
    Gender:
    Male
    опа, дождался). спс за высочайшее качество рипа!
    22-Dec-2016 15:45 (after 21 day)
  3. Longevity:
    6 years 7 months
    Posts:
    2414
    Gender:
    Male
    7105опа, дождался). спс за высочайшее качество рипа!
    Пожалуйста .
    22-Dec-2016 16:09 (after 24 minutes)
  4. Longevity:
    3 years 8 months
    Posts:
    1
    Gender:
    Unknown
    Спасибо за фильм,каачество супер)
    03-Sep-2017 19:00 (after 8 months 12 days)
  5. Longevity:
    3 years 3 months
    Posts:
    2
    Gender:
    Unknown
    РАздачу плиз((
    30-Jan-2018 18:09 (after 4 months 26 days)


You cannot post new topics in this forum
You cannot reply to topics in this forum
You cannot edit your posts in this forum
You cannot delete your posts in this forum
You cannot vote in polls in this forum
You cannot attach files in this forum
You cannot download files in this forum