[Цитировать]
Kryl

«Justice has a bad side»- Информация
Название: Отряд самоубийц
Оригинальное название: Suicide Squad
Год выхода: 2016
Жанр: Фантастика, боевик, триллер, комедия, криминал, приключения
Режиссер: Дэвид Эйр
Сценарий: Дэвид Эйр, Джон Острандер
Продюсер: Брюс Франклин, Энди Хорвитц, Джефф Джонс
В ролях: Марго Робби, Уилл Смит, Джаред Лето, Джай Кортни, Кара Делевинь, Джей Эрнандес, Юэль Киннаман, Виола Дэвис
--Сюжет:
Правительство решает дать команде суперзлодеев шанс на искупление. Подвох в том, что их отправляют на миссию, где они, вероятнее всего, погибнут.- Страна: США
Продолжительность: 02:14:32

Файл
Кодек: MPEG4/ISO/AVC H.264
Формат: MKV
Качество: BDRip 1080p | 60 fps
Видео: 1920 x 800 (2.400) | 59.940 fps | 20.0 Мбит/сек
Аудио 1: AC3 | 5.1 | 48 kHz | 640 kbps | 16 bit | Дубляж + А.Матвеев на расширенные места |
Аудио 2: AC3 | 5.1 | 48 kHz | 640 kbps | 16 bit | Авторский - А. Матвеев |
Аудио 3: AC3 | 5.1 | 48 kHz | 640 kbps | 16 bit | ENG |
Субтитры: Русские (forced, full), English

MedifInfo

Видео
Идентификатор : 1
Формат : AVC
Формат/Информация : Advanced Video Codec
Профиль формата : High@L4.1
Параметр CABAC формата : Да
Параметр ReFrames формата : 5 кадров
Идентификатор кодека : V_MPEG4/ISO/AVC
Продолжительность : 2 ч. 14 м.
Битрейт : 20,0 Мбит/сек
Ширина : 1920 пикселей
Высота : 800 пикселей
Соотношение сторон : 2,40:1
Режим частоты кадров : Постоянный
Частота кадров : 59,880 кадров/сек
Частота кадров в оригинале : 59,940 кадров/сек
Цветовое пространство : YUV
Субдискретизация насыщенности : 4:2:0
Битовая глубина : 8 бит
Тип развёртки : Прогрессивная
Бит/(Пиксели*Кадры) : 0.217
Размер потока : 18,4 Гбайт (89%)
Заголовок : www.60-fps.org
Библиотека кодирования : x264 core 148 r2638 7599210
Настройки программы : cabac=1 / ref=5 / deblock=1:-3:-3 / analyse=0x3:0x113 / me=umh / subme=8 / psy=1 / psy_rd=1.00:0.25 / mixed_ref=1 / me_range=32 / chroma_me=1 / trellis=1 / 8x8dct=1 / cqm=0 / deadzone=6,6 / fast_pskip=1 / chroma_qp_offset=-4 / threads=12 / lookahead_threads=2 / sliced_threads=0 / nr=0 / decimate=0 / interlaced=0 / bluray_compat=0 / constrained_intra=0 / bframes=3 / b_pyramid=2 / b_adapt=2 / b_bias=0 / direct=3 / weightb=1 / open_gop=0 / weightp=2 / keyint=599 / keyint_min=59 / scenecut=40 / intra_refresh=0 / rc_lookahead=50 / rc=2pass / mbtree=1 / bitrate=19999 / ratetol=1.0 / qcomp=0.80 / qpmin=0 / qpmax=69 / qpstep=4 / cplxblur=20.0 / qblur=0.5 / vbv_maxrate=62500 / vbv_bufsize=78125 / nal_hrd=none / filler=0 / ip_ratio=1.10 / aq=1:0.50
Default : Да
Forced : Нет
Аудио #1
Идентификатор : 2
Формат : AC-3
Формат/Информация : Audio Coding 3
Расширение режима : CM (complete main)
Параметр Endianness формата : Big
Идентификатор кодека : A_AC3
Продолжительность : 2 ч. 14 м.
Вид битрейта : Постоянный
Битрейт : 640 Кбит/сек
Каналы : 6 каналов
Расположение каналов : Front: L C R, Side: L R, LFE
Частота : 48,0 КГц
Битовая глубина : 16 бит
Метод сжатия : С потерями
Размер потока : 616 Мбайт (3%)
Заголовок : Дубляж + А.Матвеев на расширенные места
Язык : Russian
Default : Да
Forced : Нет
Аудио #2
Идентификатор : 3
Формат : AC-3
Формат/Информация : Audio Coding 3
Расширение режима : CM (complete main)
Параметр Endianness формата : Big
Идентификатор кодека : A_AC3
Продолжительность : 2 ч. 14 м.
Вид битрейта : Постоянный
Битрейт : 640 Кбит/сек
Каналы : 6 каналов
Расположение каналов : Front: L C R, Side: L R, LFE
Частота : 48,0 КГц
Битовая глубина : 16 бит
Метод сжатия : С потерями
Размер потока : 616 Мбайт (3%)
Заголовок : Авторский - А. Матвеев
Язык : Russian
Default : Нет
Forced : Нет
Аудио #3
Идентификатор : 4
Формат : AC-3
Формат/Информация : Audio Coding 3
Расширение режима : CM (complete main)
Параметр Endianness формата : Big
Идентификатор кодека : A_AC3
Продолжительность : 2 ч. 14 м.
Вид битрейта : Постоянный
Битрейт : 640 Кбит/сек
Каналы : 6 каналов
Расположение каналов : Front: L C R, Side: L R, LFE
Частота : 48,0 КГц
Битовая глубина : 16 бит
Метод сжатия : С потерями
Размер потока : 616 Мбайт (3%)
Заголовок : Origina
Язык : English
Default : Нет
Forced : Нет
Текст #1
Идентификатор : 5
Формат : UTF-8
Идентификатор кодека : S_TEXT/UTF8
Идентификатор кодека/Информация : UTF-8 Plain Text
Заголовок : Forced [Matveev]
Язык : Russian
Default : Да
Forced : Нет
Текст #2
Идентификатор : 6
Формат : UTF-8
Идентификатор кодека : S_TEXT/UTF8
Идентификатор кодека/Информация : UTF-8 Plain Text
Заголовок : Full [iTunes]
Язык : Russian
Default : Нет
Forced : Нет
Текст #3
Идентификатор : 7
Формат : UTF-8
Идентификатор кодека : S_TEXT/UTF8
Идентификатор кодека/Информация : UTF-8 Plain Text
Заголовок : Full
Язык : English
Default : Нет
Forced : Нет
Меню
00:00:00.000 : en:00:00:00.000
00:09:08.506 : en:00:09:08.506
00:20:22.972 : en:00:20:22.972
00:31:14.706 : en:00:31:14.706
00:41:04.879 : en:00:41:04.879
00:52:21.805 : en:00:52:21.805
01:04:48.843 : en:01:04:48.843
01:21:12.743 : en:01:21:12.743
01:32:11.943 : en:01:32:11.943
01:42:57.671 : en:01:42:57.671
01:50:58.652 : en:01:50:58.652
02:04:04.812 : en:02:04:04.812

Релиз подготовлен 60 - fps



Последний раз редактировалось: Kryl (2016-12-04 23:52), всего редактировалось 1 раз

[Цитировать]
bytrim

Да уж, ожидал что фильм будет стоящий, столько денег в него вбухали, а оказалось совсем наоборот. Фильм так себе, когда нечего смотреть и такое пойдет.

[Цитировать]
Станислав Васильев

7131Да уж, ожидал что фильм будет стоящий, столько денег в него вбухали, а оказалось совсем наоборот. Фильм так себе, когда нечего смотреть и такое пойдет.
Да, но Марго просто очаровашка, смотрел только из-за неё и думаю ещё не раз пересмотрю, уж больно сыграла она хорошо, не просто хорошо, а Очаровательно!!!
 
Показать сообщения:    

Текущее время: 23-Янв 01:27

Часовой пояс: UTC + 3


Вы не можете начинать темы
Вы не можете отвечать на сообщения
Вы не можете редактировать свои сообщения
Вы не можете удалять свои сообщения
Вы не можете голосовать в опросах
Вы не можете прикреплять файлы к сообщениям
Вы не можете скачивать файлы