Отпуск по обмену / The Holiday (2006) BDRip-AVC | 60 fps- Информация
Название: Отпуск по обмену
Оригинальное название: The Holiday
Год выхода: 2006
Жанр: мелодрама, комедия
Режиссер: Нэнси Майерс
Сценарий: Нэнси Майерс
Продюсер: Брюс А. Блок, Нэнси Майерс, Дженнифер Итц
В ролях: Кэмерон Диаз, Кейт Уинслет, Джуд Лоу, Джек Блэк, Эли Уоллах, Эдвард Бернс, Руфус Сьюэлл, Миффи Энгелфилд, Эмма Притчард, Сара Пэриш
--Сюжет:

Айрис Симпкинс, автор популярной свадебной колонки в лондонской «Daily Telegraph», живет в очаровательном коттедже в английской провинции. Она влюблена в мужчину, который любит другую. Далеко от нее в Южной Калифорнии живет Аманда Вудс, владелица процветающего рекламного агентства, занимающегося созданием роликов для фильмов. Она вдруг обнаруживает, что любимый человек ей изменяет.
Две незнакомые друг с другом женщины, живущие на расстоянии 10 000 километров друг от друга, оказываются в схожей ситуации. И они находят друг друга. В Интернете, на сайте обмена жильем на время отпуска. Перед Рождеством Айрис и Аманда решают отдохнуть от своих проблем, договорившись поменяться континентами и пожить друг у друга в течение двух недель. Айрис переезжает в дом Аманды в солнечной Калифорнии, а Аманда приезжает в засыпанную снегом английскую провинцию…
- - Страна: США
Продолжительность: 02:15:46

Файл
Кодек: MPEG4/ISO/AVC H.264
Формат: MKV
Качество: BDRip-AVC | 60 fps
Видео: 1024x552 (1.855) | 59.940 fps | 3.5 Мбит/сек
Аудио: AC3 | 5.1 | 48 kHz | 640 kbps | 16 bit |
Субтитры: русские (Полные), английские (Полные)

MedifInfo

Video
ID : 1
Format : AVC
Format/Info : Advanced Video Codec
Format profile : High@L4.1
Format settings, CABAC : Yes
Format settings, ReFrames : 4 frames
Codec ID : V_MPEG4/ISO/AVC
Duration : 2h 15mn
Bit rate : 3 520 Kbps
Width : 1 024 pixels
Height : 552 pixels
Display aspect ratio : 1.855
Frame rate : 59.940 fps
Color space : YUV
Chroma subsampling : 4:2:0
Bit depth : 8 bits
Scan type : Progressive
Bits/(Pixel*Frame) : 0.104
Stream size : 3.27 GiB (83%)
Writing library : x264 core 146 r2538 121396c
Encoding settings : cabac=1 / ref=3 / deblock=1:0:0 / analyse=0x3:0x113 / me=umh / subme=11 / psy=1 / psy_rd=1.00:0.10 / mixed_ref=1 / me_range=32 / chroma_me=1 / trellis=2 / 8x8dct=1 / cqm=0 / deadzone=21,11 / fast_pskip=0 / chroma_qp_offset=-3 / threads=12 / lookahead_threads=3 / sliced_threads=0 / nr=0 / decimate=1 / interlaced=0 / bluray_compat=0 / constrained_intra=0 / bframes=16 / b_pyramid=2 / b_adapt=2 / b_bias=0 / direct=3 / weightb=1 / open_gop=0 / weightp=2 / keyint=250 / keyint_min=25 / scenecut=40 / intra_refresh=0 / rc_lookahead=40 / rc=2pass / mbtree=0 / bitrate=3520 / ratetol=1.0 / qcomp=0.60 / qpmin=0 / qpmax=69 / qpstep=4 / cplxblur=20.0 / qblur=0.5 / vbv_maxrate=14000 / vbv_bufsize=14000 / nal_hrd=none / filler=0 / ip_ratio=1.40 / pb_ratio=1.30 / aq=1:1.00
Language : English
Default : Yes
Forced : No
Audio
ID : 2
Format : AC-3
Format/Info : Audio Coding 3
Mode extension : CM (complete main)
Codec ID : A_AC3
Duration : 2h 15mn
Bit rate mode : Constant
Bit rate : 640 Kbps
Channel(s) : 6 channels
Channel positions : Front: L C R, Side: L R, LFE
Sampling rate : 48.0 KHz
Bit depth : 16 bits
Compression mode : Lossy
Stream size : 622 MiB (15%)
Title : Дубляж
Language : Russian
Default : Yes
Forced : No
Text #1
ID : 3
Format : UTF-8
Codec ID : S_TEXT/UTF8
Codec ID/Info : UTF-8 Plain Text
Title : Полные
Language : Russian
Default : No
Forced : No
Text #2
ID : 4
Format : UTF-8
Codec ID : S_TEXT/UTF8
Codec ID/Info : UTF-8 Plain Text
Title : Полные
Language : English
Default : No
Forced : No
Menu
00:00:00.000 : en:Chapter 01
00:05:44.344 : en:Chapter 02
00:09:46.210 : en:Chapter 03
00:10:53.402 : en:Chapter 04
00:16:00.125 : en:Chapter 05
00:18:25.938 : en:Chapter 06
00:24:11.283 : en:Chapter 07
00:28:27.080 : en:Chapter 08
00:33:07.402 : en:Chapter 09
00:38:45.781 : en:Chapter 10
00:48:01.837 : en:Chapter 11
00:52:26.685 : en:Chapter 12
00:55:58.271 : en:Chapter 13
01:00:03.725 : en:Chapter 14
01:02:28.286 : en:Chapter 15
01:08:59.677 : en:Chapter 16
01:11:42.631 : en:Chapter 17
01:15:51.004 : en:Chapter 18
01:20:11.515 : en:Chapter 19
01:22:13.094 : en:Chapter 20
01:24:50.543 : en:Chapter 21
01:28:10.743 : en:Chapter 22
01:31:30.151 : en:Chapter 23
01:33:54.629 : en:Chapter 24
01:36:25.821 : en:Chapter 25
01:41:07.936 : en:Chapter 26
01:49:10.377 : en:Chapter 27
02:02:41.812 : en:Chapter 28
02:15:45.887 : en:Chapter 29

[Цитировать]
ENIGMA

Большое Спасибо!
 
Показать сообщения:    

Текущее время: 25-Сен 12:51

Часовой пояс: UTC + 3


Вы не можете начинать темы
Вы не можете отвечать на сообщения
Вы не можете редактировать свои сообщения
Вы не можете удалять свои сообщения
Вы не можете голосовать в опросах
Вы не можете прикреплять файлы к сообщениям
Вы не можете скачивать файлы