Агент Ева / Ava (2020) BDRip 1080p | 60 fps Властелин колец: Трилогия / The Lord of the Rings: Trilogy (2001-2003) BDRip-AVC | Extended Cut | 60 fps Пятый элемент / The Fifth Element (1997) BDRip 1080p | 60 fps Форпост / The Outpost (2020) BDRip 1080p | 60 fps Охота / The Hunt (2020) BDRip 1080p | 60 fps Вивариум / Vivarium (2019) BDRip 720p | 60 fps Ультрафиолет / Ultraviolet (2006) BDRip 1080p | 60 fps Поезд смерти / D-Railed (2018) BDRip 1080p | 60 fps
  1. Longevity:
    6 years 4 months
    Posts:
    2414
    Gender:
    Male
    «Коп и Бандос. Крутой попадос»- Информация
    Название: Отпетые напарники
    Оригинальное название: Skiptrace
    Год выхода: 2016
    Жанр: Драма, комедия
    Режиссер: Ренни Харлин
    Сценарий: Джей Лонгино, БенДэвид Грабински, Wen-Chia Chang
    Продюсер: Джеки Чан, Чарли Кокер, Давид Герсон
    В ролях: Джеки Чан, Джонни Ноксвил, Бинбин Фань, Эрик Цан, Ив Торрес, Уинстон Чао, Ланьсинь Чжан, Майкл Вон, Джоэль Адриан, Пьер Бурдо
    --Сюжет:
    Чтобы обезвредить преступный синдикат и спасти свою племянницу, самый честный коп должен взять в напарники красавчика-афериста. Они полные противоположности, но у них одна опасная миссия. Они в бегах, но им не избежать друг друга.- Страна: Китай, Гонконг, США
    Продолжительность: 01:47:41

    Файл
    Кодек: MPEG4/ISO/AVC/H.264
    Формат: MKV
    Качество: BDRip 720p | 60 fps
    Видео: 1280 x 534 (2.397) | 59.940 fps | 8.0 Мбит/сек
    Аудио 1: AC3 | 5.1 | 48 kHz | 384 kbps | 16 bit | Дубляж - iTunes |
    Аудио 2: AC3 | 5.1 | 48 kHz | 384 kbps | 16 bit | ENG |
    Субтитры: Русские, Eng

    MedifInfo

    Видео
    Идентификатор : 1
    Формат : AVC
    Формат/Информация : Advanced Video Codec
    Профиль формата : [email protected]
    Параметр CABAC формата : Да
    Параметр ReFrames формата : 5 кадров
    Идентификатор кодека : V_MPEG4/ISO/AVC
    Продолжительность : 1 ч. 47 м.
    Битрейт : 7999 Кбит/сек
    Ширина : 1280 пикселей
    Высота : 534 пикселя
    Соотношение сторон : 2,40:1
    Режим частоты кадров : Постоянный
    Частота кадров : 59,880 кадров/сек
    Частота кадров в оригинале : 59,940 кадров/сек
    Цветовое пространство : YUV
    Субдискретизация насыщенности : 4:2:0
    Битовая глубина : 8 бит
    Тип развёртки : Прогрессивная
    Бит/(Пиксели*Кадры) : 0.195
    Размер потока : 5,89 Гбайт (89%)
    Заголовок : www.60-fps.org
    Библиотека кодирования : x264 core 148 r2638 7599210
    Настройки программы : cabac=1 / ref=5 / deblock=1:-3:-3 / analyse=0x3:0x113 / me=umh / subme=8 / psy=1 / psy_rd=1.00:0.25 / mixed_ref=1 / me_range=32 / chroma_me=1 / trellis=1 / 8x8dct=1 / cqm=0 / deadzone=6,6 / fast_pskip=1 / chroma_qp_offset=-4 / threads=12 / lookahead_threads=2 / sliced_threads=0 / nr=0 / decimate=0 / interlaced=0 / bluray_compat=0 / constrained_intra=0 / bframes=3 / b_pyramid=2 / b_adapt=2 / b_bias=0 / direct=3 / weightb=1 / open_gop=0 / weightp=2 / keyint=599 / keyint_min=59 / scenecut=40 / intra_refresh=0 / rc_lookahead=50 / rc=2pass / mbtree=1 / bitrate=7999 / ratetol=1.0 / qcomp=0.80 / qpmin=0 / qpmax=69 / qpstep=4 / cplxblur=20.0 / qblur=0.5 / vbv_maxrate=62500 / vbv_bufsize=78125 / nal_hrd=none / filler=0 / ip_ratio=1.10 / aq=1:0.50
    Default : Да
    Forced : Нет
    Аудио #1
    Идентификатор : 2
    Формат : AC-3
    Формат/Информация : Audio Coding 3
    Расширение режима : CM (complete main)
    Параметр Endianness формата : Big
    Идентификатор кодека : A_AC3
    Продолжительность : 1 ч. 47 м.
    Вид битрейта : Постоянный
    Битрейт : 384 Кбит/сек
    Каналы : 6 каналов
    Расположение каналов : Front: L C R, Side: L R, LFE
    Частота : 48,0 КГц
    Битовая глубина : 16 бит
    Метод сжатия : С потерями
    Размер потока : 296 Мбайт (4%)
    Заголовок : Дубляж - iTunes
    Язык : Russian
    Default : Да
    Forced : Нет
    Аудио #2
    Идентификатор : 3
    Формат : AC-3
    Формат/Информация : Audio Coding 3
    Расширение режима : CM (complete main)
    Параметр Endianness формата : Big
    Идентификатор кодека : A_AC3
    Продолжительность : 1 ч. 47 м.
    Вид битрейта : Постоянный
    Битрейт : 384 Кбит/сек
    Каналы : 6 каналов
    Расположение каналов : Front: L C R, Side: L R, LFE
    Частота : 48,0 КГц
    Битовая глубина : 16 бит
    Метод сжатия : С потерями
    Размер потока : 296 Мбайт (4%)
    Заголовок : eng
    Язык : English
    Default : Нет
    Forced : Нет
    Текст
    Идентификатор : 4
    Формат : UTF-8
    Идентификатор кодека : S_TEXT/UTF8
    Идентификатор кодека/Информация : UTF-8 Plain Text
    Заголовок : Full
    Язык : English
    Default : Нет
    Forced : Нет
    Меню
    00:00:00.000 : en:00:00:00.000
    00:09:18.766 : en:00:09:18.766
    00:18:41.996 : en:00:18:41.996
    00:26:34.510 : en:00:26:34.510
    00:33:00.562 : en:00:33:00.562
    00:40:04.152 : en:00:40:04.152
    00:50:07.212 : en:00:50:07.212
    00:57:01.543 : en:00:57:01.543
    01:04:21.649 : en:01:04:21.649
    01:17:50.207 : en:01:17:50.207
    01:23:58.700 : en:01:23:58.700
    01:31:21.726 : en:01:31:21.726
    01:39:02.812 : en:01:39:02.812
    01:46:07.569 : en:01:46:07.569
    01:59:48.306 : en:01:59:48.306
    02:07:13.292 : en:02:07:13.292

    Release was prepared by 60-fps.org



You cannot post new topics in this forum
You cannot reply to topics in this forum
You cannot edit your posts in this forum
You cannot delete your posts in this forum
You cannot vote in polls in this forum
You cannot attach files in this forum
You cannot download files in this forum