Топ Топиков за 24 часа
 
Джон Уик 2 / John Wick: Chapter Two (2017) BDRip 720p | 60 fps Форсаж 8 / The Fate of the Furious (2017) BDRip 1080p | 60 fps Стражи Галактики. Часть 2 / Guardians of the Galaxy Vol. 2 (2017) BDRip 1080p | 60 fps Великая стена / The Great Wall (2016) BDRip 1080p | 60 fps Призрак в доспехах / Ghost in the Shell (2017) BDRip 1080p | 60 fps Форсаж 8 / The Fate of the Furious (2017) BDRip 720p | 60 fps Варкрафт / Warcraft (2016) BDRip 1080p | 60 fps Доктор Стрэндж / Doctor Strange (2016) BDRip 1080p | 60 fps Конг: Остров черепа / Kong: Skull Island (2017) BDRip 1080p | 60 fps Аватар / Avatar (2009) BDRip 1080p | 120 fps | Extended Collector's Cut | Experimental Чужой: Завет / Alien: Covenant (2016) BDRip 720p | 60 fps Логан / Logan (2017) BDRip 1080p | 60 fps
  1. Стаж:
    3 года 1 месяц
    Сообщений:
    2086
    Пол:
    Мужской
     
    Отпетые мошенники / Dirty Rotten Scoundrels (1988) BDRip 1080p | 60 FPS-- Информация о фильме
    Название: Отпетые мошенники
    Оригинальное название: Dirty Rotten Scoundrels
    Год выхода: 1988
    Жанр: Комедия, криминал
    Режиссер: Фрэнк Оз.
    Сценарий: Дэйл Лаунер, Стэнли Шапиро, Пол Хеннинг.
    В ролях: Стив Мартин, Майкл Кейн, Гленн Хедли, Антон Роджерс, Барбара Харрис, Иэн МакДайармид, Дэна Айви, Меган Фэй, Фрэнсис Конрой, Николь Кальфан и др.
    --О фильме:
    Судьба сводит двух «отпетых мошенников» — Фредди Бенсона и Лоуренса Джемисона, специализирующихся в качестве жиголо в оболванивании богатеньких дам. В городке, где-то на юге Франции, Фредди сначала берет уроки у мэтра Лоуренса, но, повздорив, коллеги заключают пари: кто из них первый охмурит незнакомую богатую женщину, тот остается в городе, а проигравший должен убраться.
    Предмет спора не замедлил явиться в виде симпатичной и обаятельной «мыльной королевы» Америки — Дженет.
    - -
    Страна: США
    Продолжительность: 01:50:21
    Перевод:

    Профессиональный (многоголосый, закадровый)
    Профессиональный (двухголосый, закадровый)
    Профессиональный (дублирование)
    Авторский (одноголосый)
    --Файл
    Кодек: MPEG4/ISO/AVC H.264
    Формат: MKV
    Качество: BDRip
    Видео: 1920 x 1040 (1.846) at 59.940 fps / Matroska at 30 Мбит/сек--Аудио 01: AC-3 2.0 / 48 kHz / 192 kbps R5
    Аудио 02: AC-3 2.0 / 48 kHz / 192 kbps НТВ*
    Аудио 03: AC-3 2.0 / 48 kHz / 192 kbps ВГТРК**
    Аудио 04: AC-3 2.0 / 48 kHz / 192 kbps дубляж
    Аудио 05: AC-3 5.1 / 48 kHz / 384 kbps МВО
    Аудио 06: AC-3 5.1 / 48 kHz / 384 kbps Визгунов + Ж
    Аудио 07: AC-3 2.0 / 48 kHz / 192 kbps Горчаков
    Аудио 08: DTS 5.1 / 48 kHz / 1509 kbps Михалев
    Аудио 09: DTS 5.1 / 48 kHz / 1509 kbps Живов
    Аудио 10: DTS 5.1 / 48 kHz / 1509 kbps Сербин
    Аудио 11: DTS-HD Master Audio English 5.1 / 48 kHz / 3504 kbps / 24-bit (DTS Core: 5.1 / 48 kHz / 1509 kbps / 24-bit / DN -4dB)
    Субтитры: русские (2 варианта), английские
    * текст читали Ольга Гаспарова, Юрий Петров, Алексей Инжеватов
    ** мужские роли Дмитрий Полонский
    --

    MI

    Видео
    Идентификатор : 1
    Формат : AVC
    Формат/Информация : Advanced Video Codec
    Профиль формата : High@L4.1
    Параметр CABAC формата : Да
    Параметр ReFrames формата : 4 кадра
    Идентификатор кодека : V_MPEG4/ISO/AVC
    Продолжительность : 1 ч. 50 м.
    Номинальный битрейт : 30,0 Мбит/сек
    Ширина : 1920 пикселей
    Высота : 1040 пикселей
    Соотношение сторон : 1,85:1
    Режим частоты кадров : Постоянный
    Частота кадров : 59,880 кадров/сек
    Частота кадров в оригинале : 59,940 кадров/сек
    Цветовое пространство : YUV
    Субдискретизация насыщенности : 4:2:0
    Битовая глубина : 8 бит
    Тип развёртки : Прогрессивная
    Бит/(Пиксели*Кадры) : 0.251
    Заголовок : www.60-fps.org рип от KRYL
    Библиотека кодирования : x264 core 129 r2245 bc13772
    Настройки программы : cabac=1 / ref=4 / deblock=1:-2:-2 / analyse=0x3:0x133 / me=esa / subme=9 / psy=1 / psy_rd=1.00:0.15 / mixed_ref=1 / me_range=32 / chroma_me=1 / trellis=2 / 8x8dct=1 / cqm=0 / deadzone=21,11 / fast_pskip=1 / chroma_qp_offset=-3 / threads=12 / lookahead_threads=2 / sliced_threads=0 / nr=0 / decimate=1 / interlaced=0 / bluray_compat=0 / constrained_intra=0 / bframes=3 / b_pyramid=2 / b_adapt=2 / b_bias=0 / direct=3 / weightb=1 / open_gop=0 / weightp=2 / keyint=599 / keyint_min=59 / scenecut=40 / intra_refresh=0 / rc_lookahead=60 / rc=2pass / mbtree=1 / bitrate=29999 / ratetol=1.0 / qcomp=0.60 / qpmin=0 / qpmax=69 / qpstep=4 / cplxblur=19.0 / qblur=0.0 / ip_ratio=1.40 / aq=1:1.00
    Язык : English
    Default : Нет
    Forced : Нет
    Аудио #1
    Идентификатор : 2
    Формат : AC-3
    Формат/Информация : Audio Coding 3
    Расширение режима : CM (complete main)
    Параметр Endianness формата : Big
    Идентификатор кодека : A_AC3
    Продолжительность : 1 ч. 50 м.
    Вид битрейта : Постоянный
    Битрейт : 192 Кбит/сек
    Каналы : 2 канала
    Расположение каналов : Front: L R
    Частота : 48,0 КГц
    Битовая глубина : 16 бит
    Метод сжатия : С потерями
    Размер потока : 152 Мбайт (0%)
    Заголовок : R5
    Язык : Russian
    Default : Да
    Forced : Нет
    Аудио #2
    Идентификатор : 3
    Формат : AC-3
    Формат/Информация : Audio Coding 3
    Расширение режима : CM (complete main)
    Параметр Endianness формата : Big
    Идентификатор кодека : A_AC3
    Продолжительность : 1 ч. 50 м.
    Вид битрейта : Постоянный
    Битрейт : 192 Кбит/сек
    Каналы : 2 канала
    Расположение каналов : Front: L R
    Частота : 48,0 КГц
    Битовая глубина : 16 бит
    Метод сжатия : С потерями
    Размер потока : 152 Мбайт (0%)
    Заголовок : НТВ
    Язык : Russian
    Default : Нет
    Forced : Нет
    Аудио #3
    Идентификатор : 4
    Формат : AC-3
    Формат/Информация : Audio Coding 3
    Расширение режима : CM (complete main)
    Параметр Endianness формата : Big
    Идентификатор кодека : A_AC3
    Продолжительность : 1 ч. 50 м.
    Вид битрейта : Постоянный
    Битрейт : 192 Кбит/сек
    Каналы : 2 канала
    Расположение каналов : Front: L R
    Частота : 48,0 КГц
    Битовая глубина : 16 бит
    Метод сжатия : С потерями
    Размер потока : 152 Мбайт (0%)
    Заголовок : РТР
    Язык : Russian
    Default : Нет
    Forced : Нет
    Аудио #4
    Идентификатор : 5
    Формат : AC-3
    Формат/Информация : Audio Coding 3
    Расширение режима : CM (complete main)
    Параметр Endianness формата : Big
    Идентификатор кодека : A_AC3
    Продолжительность : 1 ч. 50 м.
    Вид битрейта : Постоянный
    Битрейт : 192 Кбит/сек
    Каналы : 2 канала
    Расположение каналов : Front: L R
    Частота : 48,0 КГц
    Битовая глубина : 16 бит
    Метод сжатия : С потерями
    Размер потока : 152 Мбайт (0%)
    Заголовок : дубляж
    Язык : Russian
    Default : Нет
    Forced : Нет
    Аудио #5
    Идентификатор : 6
    Формат : AC-3
    Формат/Информация : Audio Coding 3
    Расширение режима : CM (complete main)
    Параметр Endianness формата : Big
    Идентификатор кодека : A_AC3
    Продолжительность : 1 ч. 50 м.
    Вид битрейта : Постоянный
    Битрейт : 384 Кбит/сек
    Каналы : 6 каналов
    Расположение каналов : Front: L C R, Side: L R, LFE
    Частота : 48,0 КГц
    Битовая глубина : 16 бит
    Метод сжатия : С потерями
    Размер потока : 303 Мбайт (1%)
    Заголовок : многоголосый
    Язык : Russian
    Default : Нет
    Forced : Нет
    Аудио #6
    Идентификатор : 7
    Формат : AC-3
    Формат/Информация : Audio Coding 3
    Расширение режима : CM (complete main)
    Параметр Endianness формата : Big
    Идентификатор кодека : A_AC3
    Продолжительность : 1 ч. 50 м.
    Вид битрейта : Постоянный
    Битрейт : 384 Кбит/сек
    Каналы : 6 каналов
    Расположение каналов : Front: L C R, Side: L R, LFE
    Частота : 48,0 КГц
    Битовая глубина : 16 бит
    Метод сжатия : С потерями
    Размер потока : 303 Мбайт (1%)
    Заголовок : Сергей Визгунов + Ж
    Язык : Russian
    Default : Нет
    Forced : Нет
    Аудио #7
    Идентификатор : 8
    Формат : AC-3
    Формат/Информация : Audio Coding 3
    Расширение режима : CM (complete main)
    Параметр Endianness формата : Big
    Идентификатор кодека : A_AC3
    Продолжительность : 1 ч. 50 м.
    Вид битрейта : Постоянный
    Битрейт : 192 Кбит/сек
    Каналы : 2 канала
    Расположение каналов : Front: L R
    Частота : 48,0 КГц
    Битовая глубина : 16 бит
    Метод сжатия : С потерями
    Размер потока : 152 Мбайт (0%)
    Заголовок : авторский - Василий Горчаков
    Язык : Russian
    Default : Нет
    Forced : Нет
    Аудио #8
    Идентификатор : 9
    Формат : DTS
    Формат/Информация : Digital Theater Systems
    Режим : 16
    Параметр Endianness формата : Big
    Идентификатор кодека : A_DTS
    Продолжительность : 1 ч. 50 м.
    Вид битрейта : Постоянный
    Битрейт : 1509 Кбит/сек
    Каналы : 6 каналов
    Расположение каналов : Front: L C R, Side: L R, LFE
    Частота : 48,0 КГц
    Битовая глубина : 24 бит
    Метод сжатия : С потерями
    Размер потока : 1,16 Гбайт (4%)
    Заголовок : авторский - Алексей Михалев
    Язык : Russian
    Default : Нет
    Forced : Нет
    Аудио #9
    Идентификатор : 10
    Формат : DTS
    Формат/Информация : Digital Theater Systems
    Режим : 16
    Параметр Endianness формата : Big
    Идентификатор кодека : A_DTS
    Продолжительность : 1 ч. 50 м.
    Вид битрейта : Постоянный
    Битрейт : 1509 Кбит/сек
    Каналы : 6 каналов
    Расположение каналов : Front: L C R, Side: L R, LFE
    Частота : 48,0 КГц
    Битовая глубина : 24 бит
    Метод сжатия : С потерями
    Размер потока : 1,16 Гбайт (4%)
    Заголовок : авторский - Юрий Живов
    Язык : Russian
    Default : Нет
    Forced : Нет
    Аудио #10
    Идентификатор : 11
    Формат : DTS
    Формат/Информация : Digital Theater Systems
    Режим : 16
    Параметр Endianness формата : Big
    Идентификатор кодека : A_DTS
    Продолжительность : 1 ч. 50 м.
    Вид битрейта : Постоянный
    Битрейт : 1509 Кбит/сек
    Каналы : 6 каналов
    Расположение каналов : Front: L C R, Side: L R, LFE
    Частота : 48,0 КГц
    Битовая глубина : 24 бит
    Метод сжатия : С потерями
    Размер потока : 1,16 Гбайт (4%)
    Заголовок : авторский - Юрий Сербин
    Язык : Russian
    Default : Нет
    Forced : Нет
    Аудио #11
    Идентификатор : 12
    Формат : DTS
    Формат/Информация : Digital Theater Systems
    Профиль формата : MA / Core
    Режим : 16
    Параметр Endianness формата : Big
    Идентификатор кодека : A_DTS
    Продолжительность : 1 ч. 50 м.
    Вид битрейта : Переменный
    Битрейт : Неизвестно / 1509 Кбит/сек
    Каналы : 6 каналов
    Расположение каналов : Front: L C R, Side: L R, LFE
    Частота : 48,0 КГц
    Битовая глубина : 24 бит
    Метод сжатия : Без потерь / Lossy
    Язык : English
    Default : Нет
    Forced : Нет
    Текст #1
    Идентификатор : 13
    Формат : UTF-8
    Идентификатор кодека : S_TEXT/UTF8
    Идентификатор кодека/Информация : UTF-8 Plain Text
    Заголовок : R5
    Язык : Russian
    Default : Да
    Forced : Нет
    Текст #2
    Идентификатор : 14
    Формат : UTF-8
    Идентификатор кодека : S_TEXT/UTF8
    Идентификатор кодека/Информация : UTF-8 Plain Text
    Язык : Russian
    Default : Нет
    Forced : Нет
    Текст #3
    Идентификатор : 15
    Формат : UTF-8
    Идентификатор кодека : S_TEXT/UTF8
    Идентификатор кодека/Информация : UTF-8 Plain Text
    Заголовок : SDH
    Язык : English
    Default : Нет
    Forced : Нет
    Меню
    00:00:00.000 : en:00:00:00.000
    00:08:08.238 : en:00:08:08.238
    00:18:47.126 : en:00:18:47.126
    00:23:50.304 : en:00:23:50.304
    00:29:23.553 : en:00:29:23.553
    00:32:37.747 : en:00:32:37.747
    00:40:01.107 : en:00:40:01.107
    00:47:10.036 : en:00:47:10.036
    00:56:19.459 : en:00:56:19.459
    01:04:24.152 : en:01:04:24.152
    01:10:00.530 : en:01:10:00.530
    01:16:26.749 : en:01:16:26.749
    01:24:23.684 : en:01:24:23.684
    01:28:24.049 : en:01:28:24.049
    01:34:02.178 : en:01:34:02.178
    01:41:53.399 : en:01:41:53.399


    Последний раз редактировалось: Kryl (2014-11-15 18:24), всего редактировалось 2 раз(а)
  2. ZHz

    Стаж:
    3 года
    Сообщений:
    188
    Пол:
    Мужской
     
    Шедевр!
    12-Ноя-2014 11:51 (спустя 12 часов)
  3. Стаж:
    2 года 9 месяцев
    Сообщений:
    9
    Пол:
    Мужской
     
    дайте пожалуйста скорость. чуть чуть
    17-Мар-2015 12:15 (спустя 4 месяца 5 дней)
  4. Стаж:
    3 года 1 месяц
    Сообщений:
    2086
    Пол:
    Мужской
     
    2161дайте пожалуйста скорость. чуть чуть
    Встал на раздачу .
    17-Мар-2015 12:54 (спустя 39 минут)
  5. Стаж:
    2 года 9 месяцев
    Сообщений:
    9
    Пол:
    Мужской
     
    спасибо
    17-Мар-2015 13:08 (спустя 13 минут)
  6. Стаж:
    2 года 6 месяцев
    Сообщений:
    2
    Пол:
    Не указан
     
    Kryl, Доброго времени суток!
    Прошу помочь скачать "Отпетых мошенников"!
    Готов материально помочь проекту.
    С уважением!
    04-Июн-2016 23:59 (спустя 1 год 2 месяца)
  7. Стаж:
    3 года 1 месяц
    Сообщений:
    2086
    Пол:
    Мужской
     
    иван ткач,
    5969Kryl, Доброго времени суток!
    Прошу помочь скачать "Отпетых мошенников"!
    Готов материально помочь проекту.
    С уважением!
    Так , вы уже помогли Улыбаюсь .
    Качайте .
    05-Июн-2016 06:55 (спустя 6 часов)
  8. Стаж:
    2 года 10 месяцев
    Сообщений:
    11
    Пол:
    Мужской
     
    Ребята, обязательно посмотрите этот фильм. Классика жанра. Игра Стива Мартина восхитительна. Один Рупрехт чего стоит)))
    09-Июн-2016 18:50 (спустя 4 дня)
  9. Стаж:
    3 года
    Сообщений:
    1
    Пол:
    Мужской
     
    спасибо
    11-Июн-2016 20:04 (спустя 2 дня 1 час)
  10. Стаж:
    2 года 2 месяца
    Сообщений:
    2
    Пол:
    Мужской
     
    Где раздающие Волнуюсь Станьте на раздачу Плачу
    13-Июн-2016 18:08 (спустя 1 день 22 часа)


Вы не можете начинать темы
Вы не можете отвечать на сообщения
Вы не можете редактировать свои сообщения
Вы не можете удалять свои сообщения
Вы не можете голосовать в опросах
Вы не можете прикреплять файлы к сообщениям
Вы не можете скачивать файлы