Богемская рапсодия /Bohemian Rhapsody (2018) BDRip 1080p | 60 fps Джон Уик / John Wick (2014) BDRip 720p | 60 fps Властелин колец: Трилогия / The Lord of the Rings: Trilogy (2001-2003) BDRip-AVC | Extended Cut | 60 fps Щелкунчик и четыре королевства / The Nutcracker and the Four Realms (2018) BDRip 1080p | 60 fps Репродукция / Replicas (2018) BDRip 720p | 60 fps Клаустрофобы / Escape Room (2019) BDRip 1080p | 60 fps Зеленая книга / Green Book (2018) BDRip 720p | 60 fps Апгрейд / Upgrade (2018) BDRip 1080p | 60 fps
  1. Longevity:
    4 years 10 months
    Posts:
    2411
    Gender:
    Male
    Информация
    Название: От семьи не убежишь
    Оригинальное название: La ch'tite famille
    Год выхода: 2018
    Жанр: Комедия
    Режиссер: Дэни Бун
    Сценарий: Дэни Бун, Сара Камински
    Продюсер: Дэни Бун, Эрик Юбер
    В ролях: Дани Бун, Лин Рено, Лоранс Арне, Валери Боннетон, Ги Леклюиз, Франсуа Берлеан, Пьер Ришар, Жюлиан Лепоро, Стефан Пезера, Ян Туаль

    Сюжет:
    Молодые и успешные парижские дизайнеры Валентин и Констанция готовятся заключить многомиллионный контракт, но в самый неподходящий момент на выставку приезжает вся семейка Валентина, которая проливает свет на его прошлое и расстраивает все планы.

    Страна: США
    Продолжительность: 01:46:28

    Файл
    Кодек: H.264
    Формат: MKV
    Качество: BDRip 720p | 60 fps
    Видео: 1280 x 536 (2.388) | 59.940 fps | 10.0 Мбит/сек
    Аудио: AC3 | 5.1 | 48 kHz | 384 kbps | 16 bit | Дубляж - iTunes |

    MedifInfo

    Видео
    Идентификатор : 1
    Формат : AVC
    Формат/Информация : Advanced Video Codec
    Профиль формата : High@L4.1
    Параметр CABAC формата : Да
    Параметр ReFrames формата : 4 кадра
    Идентификатор кодека : V_MPEG4/ISO/AVC
    Продолжительность : 1 ч. 46 м.
    Битрейт : 9999 Кбит/сек
    Ширина : 1280 пикселей
    Высота : 536 пикселей
    Соотношение сторон : 2,40:1
    Режим частоты кадров : Постоянный
    Частота кадров : 59,880 кадров/сек
    Частота кадров в оригинале : 59,940 кадров/сек
    Цветовое пространство : YUV
    Субдискретизация насыщенности : 4:2:0
    Битовая глубина : 8 бит
    Тип развёртки : Прогрессивная
    Бит/(Пиксели*Кадры) : 0.243
    Размер потока : 7,28 Гбайт (94%)
    Заголовок : www.60-fps.org
    Библиотека кодирования : x264 core 155 r2901 7d0ff22
    Настройки программы : cabac=1 / ref=3 / deblock=1:-3:-3 / analyse=0x3:0x113 / me=umh / subme=9 / psy=1 / psy_rd=1.00:0.25 / mixed_ref=1 / me_range=32 / chroma_me=1 / trellis=1 / 8x8dct=1 / cqm=0 / deadzone=6,6 / fast_pskip=1 / chroma_qp_offset=-4 / threads=12 / lookahead_threads=1 / sliced_threads=0 / nr=0 / decimate=0 / interlaced=0 / bluray_compat=0 / constrained_intra=0 / bframes=3 / b_pyramid=2 / b_adapt=1 / b_bias=0 / direct=1 / weightb=1 / open_gop=0 / weightp=2 / keyint=599 / keyint_min=59 / scenecut=40 / intra_refresh=0 / rc_lookahead=40 / rc=2pass / mbtree=1 / bitrate=9999 / ratetol=1.0 / qcomp=0.80 / qpmin=0 / qpmax=69 / qpstep=4 / cplxblur=20.0 / qblur=0.5 / vbv_maxrate=62500 / vbv_bufsize=78125 / nal_hrd=none / filler=0 / ip_ratio=1.10 / aq=1:0.50
    Default : Да
    Forced : Нет
    Аудио
    Идентификатор : 2
    Формат : AC-3
    Формат/Информация : Audio Coding 3
    Расширение режима : CM (complete main)
    Параметр Endianness формата : Big
    Идентификатор кодека : A_AC3
    Продолжительность : 1 ч. 46 м.
    Вид битрейта : Постоянный
    Битрейт : 384 Кбит/сек
    Каналы : 6 каналов
    Расположение каналов : Front: L C R, Side: L R, LFE
    Частота : 48,0 КГц
    Битовая глубина : 16 бит
    Метод сжатия : С потерями
    Размер потока : 292 Мбайт (4%)
    Заголовок : Дубляж - iTunes
    Язык : Russian
    Default : Да
    Forced : Да
    Меню
    00:00:00.000 : en:Chapter 1
    00:07:37.248 : en:Chapter 2
    00:15:11.285 : en:Chapter 3
    00:25:04.461 : en:Chapter 4
    00:33:17.870 : en:Chapter 5
    00:41:44.627 : en:Chapter 6
    00:51:26.249 : en:Chapter 7
    01:00:48.811 : en:Chapter 8
    01:10:42.905 : en:Chapter 9
    01:20:07.928 : en:Chapter 10
    01:30:17.620 : en:Chapter 11
    01:41:55.150 : en:Chapter 12

    Release was prepared by 60 - fps



You cannot post new topics in this forum
You cannot reply to topics in this forum
You cannot edit your posts in this forum
You cannot delete your posts in this forum
You cannot vote in polls in this forum
You cannot attach files in this forum
You cannot download files in this forum