«Выбери свою судьбу»- Информация
Название: Особо опасен
Оригинальное название: Wanted
Год выхода: 2008
Жанр: Фэнтези, боевик, триллер, криминал
Режиссер: Тимур Бекмамбетов
Сценарий: Майкл Брандт, Дерек Хаас, Крис Морган
Продюсер: Джим Лемли, Джейсон Неттер, Марк Э. Платт
В ролях: Джеймс МакЭвой, Морган Фриман, Анджелина Джоли, Теренс Стэмп, Томас Кречманн, Common, Кристен Хагер, Марк Уоррен, Дэвид О`Хара, Константин Хабенский, Дато Бахтадзе, Крис Прэтт, Лорна Скотт, София Хак, Брэд Калькатерра, Брайан Каспе, Марк О`Нил, Бриджет МакМанус, Скарлетт Спердуто, Боб Эри, Дэниэл Боутон
--Сюжет:
Уэсли Гибсон — зануда и нытик, целыми днями торчащий в офисе. Босс его унижает, подружка ему изменяет. Его жизнь катится в никуда! Обнаружив, что отец, бросивший его в раннем детстве, зверски убит, Уэс оказывается втянут в тайное общество киллеров под названием «Братство». За его обучение берется опытная наставница Фокс, и этот когда-то прикованный к офисному креслу хлюпик развивает молниеносную реакцию и сверхчеловеческую скорость. Однако уже на первом задании Уэсли понимает: есть вещи посложнее, чем вершить судьбы других людей. Это — набраться храбрости и стать хозяином собственной жизни.- - Страна: США, Германия
Продолжительность: 01:49:53

Файл
Кодек: MPEG4/ISO/AVC H.264
Формат: MKV
Качество: BDRip 720p
Видео: 1280x544 | 59.940 fps | 6.5 Мбит/сек
Аудио 1: AC3 | 5.1 | 48 kHz | 448 kbps | 16 bit | Дубляж |
Аудио 2: AC3 | 5.1 | 48 kHz | 640 kbps | 16 bit | ENG |
Субтитры: Русские | Полные, Английские | Полные

MedifInfo

Video
ID : 1
Format : AVC
Format/Info : Advanced Video Codec
Format profile : High@L4.1
Format settings, CABAC : Yes
Format settings, ReFrames : 9 frames
Codec ID : V_MPEG4/ISO/AVC
Duration : 1h 49mn
Bit rate : 6 500 Kbps
Width : 1 280 pixels
Height : 544 pixels
Display aspect ratio : 2.35:1
Frame rate mode : Constant
Frame rate : 59.880 fps
Original frame rate : 59.940 fps
Color space : YUV
Chroma subsampling : 4:2:0
Bit depth : 8 bits
Scan type : Progressive
Bits/(Pixel*Frame) : 0.156
Stream size : 4.99 GiB (84%)
Writing library : x264 core 146 r2538 121396c
Encoding settings : cabac=1 / ref=9 / deblock=1:0:0 / analyse=0x3:0x113 / me=umh / subme=10 / psy=1 / psy_rd=1.00:0.00 / mixed_ref=1 / me_range=24 / chroma_me=1 / trellis=2 / 8x8dct=1 / cqm=0 / deadzone=21,11 / fast_pskip=0 / chroma_qp_offset=-2 / threads=12 / lookahead_threads=1 / sliced_threads=0 / nr=0 / decimate=1 / interlaced=0 / bluray_compat=0 / constrained_intra=0 / bframes=5 / b_pyramid=2 / b_adapt=2 / b_bias=0 / direct=3 / weightb=1 / open_gop=0 / weightp=2 / keyint=250 / keyint_min=25 / scenecut=40 / intra_refresh=0 / rc_lookahead=40 / rc=crf / mbtree=0 / crf=18.0 / qcomp=0.60 / qpmin=0 / qpmax=69 / qpstep=4 / vbv_maxrate=14000 / vbv_bufsize=14000 / crf_max=0.0 / nal_hrd=none / filler=0 / ip_ratio=1.40 / pb_ratio=1.30 / aq=3:1.00
Language : English
Default : Yes
Forced : No
Audio #1
ID : 2
Format : AC-3
Format/Info : Audio Coding 3
Mode extension : CM (complete main)
Format settings, Endianness : Big
Codec ID : A_AC3
Duration : 1h 49mn
Bit rate mode : Constant
Bit rate : 448 Kbps
Channel(s) : 6 channels
Channel positions : Front: L C R, Side: L R, LFE
Sampling rate : 48.0 KHz
Compression mode : Lossy
Stream size : 352 MiB (6%)
Title : Dub
Language : Russian
Default : Yes
Forced : No
Audio #2
ID : 3
Format : AC-3
Format/Info : Audio Coding 3
Mode extension : CM (complete main)
Format settings, Endianness : Big
Codec ID : A_AC3
Duration : 1h 49mn
Bit rate mode : Constant
Bit rate : 640 Kbps
Channel(s) : 6 channels
Channel positions : Front: L C R, Side: L R, LFE
Sampling rate : 48.0 KHz
Compression mode : Lossy
Stream size : 503 MiB (8%)
Title : Eng
Language : English
Default : No
Forced : No
Text #1
ID : 4
Format : UTF-8
Codec ID : S_TEXT/UTF8
Codec ID/Info : UTF-8 Plain Text
Title : Rus forced
Language : Russian
Default : No
Forced : Yes
Text #2
ID : 5
Format : UTF-8
Codec ID : S_TEXT/UTF8
Codec ID/Info : UTF-8 Plain Text
Title : Rus full
Language : Russian
Default : No
Forced : No
Text #3
ID : 6
Format : UTF-8
Codec ID : S_TEXT/UTF8
Codec ID/Info : UTF-8 Plain Text
Title : Eng full
Language : English
Default : No
Forced : No
Menu #1
00:00:00.000 : en:The Fraternity
00:07:01.921 : en:Stressed Out
00:12:58.235 : en:Greatest Assassin
00:20:58.590 : en:One of Us
00:26:25.834 : en:I'm the Man
00:32:11.512 : en:In the Factory
00:37:30.373 : en:Feeling Good
00:42:04.688 : en:One By One
00:45:22.136 : en:Who Are You?
00:51:52.901 : en:Loom of Fate
00:56:23.838 : en:First Target
01:00:58.780 : en:Second Target
01:04:00.211 : en:A Message
01:09:42.636 : en:Meeting the Maker
01:13:32.032 : en:Off Track
01:20:23.777 : en:Perfet Weapon
01:27:10.683 : en:Kill Him
01:33:24.557 : en:Follow the Code
01:39:26.460 : en:Taking Control
01:42:22.052 : en:End Titles
Menu #2
00:00:00.000 : en:The Fraternity
00:07:01.921 : en:Stressed Out
00:12:58.235 : en:Greatest Assassin
00:20:58.590 : en:One of Us
00:26:25.834 : en:I'm the Man
00:32:11.512 : en:In the Factory
00:37:30.373 : en:Feeling Good
00:42:04.688 : en:One By One
00:45:22.136 : en:Who Are You?
00:51:52.901 : en:Loom of Fate
00:56:23.838 : en:First Target
01:00:58.780 : en:Second Target
01:04:00.211 : en:A Message
01:09:42.636 : en:Meeting the Maker
01:13:32.032 : en:Off Track
01:20:23.777 : en:Perfet Weapon
01:27:10.683 : en:Kill Him
01:33:24.557 : en:Follow the Code
01:39:26.460 : en:Taking Control
01:42:22.052 : en:End Titles
[60-fps.org].t1385.torrent
Торрент: Зарегистрирован [ 2015-11-01 20:26 ] · A097C0918150FE45FC38CF7A02559CF6F9BC544D

Скачать .torrent

Скачать

30 KB

Статус: проверено
Скачан: 104 раз
Поблагодарили:
Размер: 5,94 GB
 
Похожие Темы
 
Показать сообщения:    

Текущее время: 20-Фев 02:26

Часовой пояс: UTC + 3


Вы не можете начинать темы
Вы не можете отвечать на сообщения
Вы не можете редактировать свои сообщения
Вы не можете удалять свои сообщения
Вы не можете голосовать в опросах
Вы не можете прикреплять файлы к сообщениям
Вы можете скачивать файлы